Welcome Guest ( Log In | Register )

 
Reply to this topicStart new topic
> Just Before Dawn - Who Knows What The Dark Brings [ep] (2020), Old School Death Metal (D)
post Jul 29 2020, 18:52:28
Post #1

MDM-Thrash Metal
**************
Group: Металариец
Posts: 10,496
Releases: 1268
From: Одесса
On Forums: 13 years 11 months
Thanks: 30854 time(s)
Ukraine


(IMG:http://metalarea.org/images/audiocovers/2020_Jul/acov_tid340227_thumb.jpg)

*Artist: Just Before Dawn
*Album: Who Knows What The Dark Brings [ep]
*Year: 2020
*Genre: Old School Death Metal
*Country: Sweden (IMG:http://metalarea.org/forum/style_images/flags/Sweden.png)
*Format: mp3@CBR320kbps
*Size: 37MB

Tracklist:
01. Who Knows What the Dark Brings
02. Goliath Revived
03. Before the Fall
******************************
Total playing time: 15:35




Technical info
(IMG:http://metalarea.org/images/spectrogram/2020_Jul/3ce0a208e4e403ada4b3ca2eed4a8d39.png)
Input File: 02. Goliath Revived.mp3
Channels : 2
Sample Rate : 44100
Precision : 16-bit
Duration : 00:04:39.45 = 12323745 samples = 20958.8 CDDA sectors
File Size : 11.4M
Bit Rate : 327k
Sample Encoding: MPEG audio (layer I, II or III)
Comments :
Title=Goliath Revived
Artist=Just Before Dawn
Album=Who Knows What the Dark Brings
Tracknumber=2
Year=2020
Genre=OSDM



Register


Go to the top of the page
  Insert nick Quick quote
+Quote Post

Reply to this topicStart new topic
1 User(s) are reading this topic (1 Guests and 0 Anonymous Users)
0 Members:

 



- Lo-Fi Version Support form
Copyrights and abuse reports form
Time is now: 4th August 2021 - 13:13:39