Welcome Guest ( Log In | Register )

Объявления

* gmail.com упорно продолжает считать почту с нас "unsolicited" и отбивает в том числе и письма активации, поэтому просьба использовать альтернативные почтовые ящики.
------------
* gmail.com continues reject all mail from us as "unsolicited" (activation mails too) therefore please use alternate mail servers.
 
Reply to this topicStart new topic
> Various Artists - Grave Command – All Hallowed Hymns [compilation] (2012), Death/Doom/Black Metal/Psychedelic Stoner Rock/Electronic
post Jul 29 2020, 20:20:52
Post #1

Правь статус, ####!111
**************
Group: Металариец
Posts: 2,074
Releases: 453
On Forums: 5 years 5 months
Thanks: 6459 time(s)
Canada


(IMG:https://metalarea.org/images/audiocovers/2020_Jul/acov_tid340229_thumb.jpeg)

*Artist: Various Artists
*Album: Grave Command – All Hallowed Hymns [compilation]
*Year: 2012
*Genre: Death/Doom/Black Metal/Psychedelic Stoner Rock/Electronic
*Country: United States (IMG:https://metalarea.org/forum/style_images/flags/United%20States.png)
*Format: mp3@CBR192kbps
*Size: 69MB

Tracklist:
1. Ghoul - Noapte De Fantome Vii In D Minor 02:13
2. Xinr - All Hallows Eve 05:22
3. Orchid - Demon's Eyes 03:58
4. Ride For Revenge - Insects Fled To The Core Of The Earth 04:26
5. Xander Harris - The Piper Of Soggoth 04:01
6. Grave Violators - Black Incantations 04:01
7. Deceased - Torn Apart By Werewolves 03:31
8. Occultation - All Hallows Fire 05:12
9. Venenum - Waltz In Hell 03:57
10. Danava - Grave Command (Main Theme) 03:40
******************************
Total playing time: 40:21

Extended info
vinyl rip by canadaspaceman
Picture Disc LP

https://www.discogs.com/Various-Grave-Comma...release/3882314

Label: Unseen Forces ‎– Unseen Forces 006
Limited to 1000 copies.

Assemblage of never-before-heard compositions written and recorded specifically for this collection (plus the Xinr's "All Hallows Eve" from 1984).


Technical info
(IMG:https://metalarea.org/images/spectrogram/2020_Jul/00cd948fd36d1939fc9c36f4415e9eac.png)
Input File: A1. Ghoul - Noapte De Fantome Vii In D Minor.mp3
Channels : 2
Sample Rate : 44100
Precision : 16-bit
Duration : 00:02:13.63 = 5892995 samples = 10022.1 CDDA sectors
File Size : 3.79M
Bit Rate : 227k
Sample Encoding: MPEG audio (layer I, II or III)
Comments :
Album=Grave Command–All Hallowed Hymns [Picture Disc LP] [Compilation] (2012)
Year=2012



Register


Go to the top of the page
  Insert nick Quick quote
+Quote Post

Reply to this topicStart new topic
1 User(s) are reading this topic (1 Guests and 0 Anonymous Users)
0 Members:

 



- Lo-Fi Version Support form
Copyrights and abuse reports form
Time is now: 23rd July 2024 - 22:15:56