Welcome Guest ( Log In | Register )

> И неформату есть предел.

Рэп/хип-хоп/шансон/поп удаляются. Для них есть свои порталы.

 
Reply to this topicStart new topic
> Bill Wyman - Bill Wyman [2006 Reissue] (1982), Rock
post Jul 30 2020, 06:40:04
Post #1

Семь Литров
*******
Group: Металариец
Posts: 702
Releases: 136
On Forums: 1 year 6 months
Thanks: 1714 time(s)
Canada


(IMG:https://metalarea.org/images/audiocovers/2020_Jul/acov_tid340235_thumb.jpg)

*Artist: Bill Wyman
*Album: Bill Wyman [2006 Reissue]
*Year: 1982
*Genre: Rock
*Country: United Kingdom (IMG:https://metalarea.org/forum/style_images/flags/United%20Kingdom.png)
*Format: mp3@CBR320kbps
*Size: 126MB

Tracklist:
1. Ride On Baby 03:53
2. A New Fashion 04:09
3. Nuclear Reactions 03:38
4. Visions 04:13
5. Jump Up 03:57
6. Come Back Suzanne 03:23
7. Rio de Janeiro 04:15
8. Girls 02:44
9. Seventeen 03:42
10. Si, Si) Je Suis Un Rock Star 05:59
11. Rio de Janeiro (single edit) 03:47
12. Come Back Suzanne (single edit) 02:53
13. Visions (single edit) 02:58
14. (Si, Si) Je Suis Un Rock Star (single edit) 03:21
******************************
Total playing time: 52:52

Extended info
CD Rip

solo album by The Rolling Stones bass player.

https://en.wikipedia.org/wiki/Bill_Wyman_(album)

https://www.discogs.com/Bill-Wyman-Bill-Wyman/master/103279

Label: Castle Music 02182-36265-2 US 2006
Series: The Bill Wyman Solo Collection
Format: CD, Album, Reissue
Country: USA
Released: 2006
Expanded Edition, part of "The Bill Wyman Solo Collection"
originally released in 1982


Technical info
(IMG:https://metalarea.org/images/spectrogram/2020_Jul/2611046aaf8623ba932a72a8006919b9.png)
Input File: Bill Wyman - 08 - Girls.mp3
Channels : 2
Sample Rate : 44100
Precision : 16-bit
Duration : 00:02:44.92 = 7272972 samples = 12369 CDDA sectors
File Size : 6.73M
Bit Rate : 327k
Sample Encoding: MPEG audio (layer I, II or III)
Comments :
Title=Girls
Artist=Bill Wyman
Album=2006 reissue the Bill Wyman Solo Collection
Tracknumber=8/14
Year=1982
Genre=Rock
Discnumber=1/1



Register


Thanks:
Go to the top of the page
  Insert nick Quick quote
+Quote Post

Reply to this topicStart new topic
1 User(s) are reading this topic (1 Guests and 0 Anonymous Users)
0 Members:

 



- Lo-Fi Version Support form
Copyrights and abuse reports form
Time is now: 11th August 2020 - 17:03:23