Welcome Guest ( Log In | Register )

> Thoron - Ode To The Dead (2020), Death/Thrash Metal
post Jul 31 2020, 06:53:09
Post #1

Правь статус, ####!111
**************
Group: Металариец
Posts: 29,216
Releases: 21435
From: Г.Харьков
On Forums: 10 years 1 week
Thanks: 442691 time(s)
Unknown


(IMG:https://metalarea.org/images/audiocovers/2020_Jul/acov_tid340280_thumb.jpg)

*Artist: Thoron
*Album: Ode To The Dead
*Year: 2020
*Genre: Death/Thrash Metal
*Country: Sweden (IMG:https://metalarea.org/forum/style_images/flags/Sweden.png)
*Format: mp3@CBR320kbps
*Size: 101MB

Tracklist:
1. Ode to the Dead
2. Across the Time
3. Hunted to Your Grave
4. Reached From Beyond
5. Gone With the Wind
6. Through Blasphemy
7. Attack!
8. Life Is Hell
9. Can't Catch Me
10. Blood By Blood
11. Grasping at Straws
12. Between Life and Death
13. Turn Around
******************************
Total playing time: 43:50



Extended info
Per Lanner Guitars
Torbjörn Öhrling Bass (2001-present)
See also: ex-Unmoored
Rickard Larsson Guitars (2001-present)
See also: ex-Unmoored
Patrik Håkansson Vocals (2003-present)
See also: Assaultery
Kalle Drums (2009-present)



Technical info
(IMG:https://metalarea.org/images/spectrogram/2020_Jul/7d57593cb653262d54c357cfe67bbd5e.png)
Input File: 04 - Reached From Beyond.mp3
Channels : 2
Sample Rate : 44100
Precision : 16-bit
Duration : 00:03:41.03 = 9747599 samples = 16577.5 CDDA sectors
File Size : 8.95M
Bit Rate : 324k
Sample Encoding: MPEG audio (layer I, II or III)
Comments :
Title=Reached From Beyond
Artist=Thoron
Album=Ode to the Dead
Tracknumber=4
Year=2020



Register


Go to the top of the page
  Insert nick Quick quote
+Quote Post
 
Start new topic
Replies (1 - 4)
post Jul 31 2020, 22:20:21
Post #2

Crush The Enemies
**************
Group: Металариец
Posts: 4,337
Releases: 0
From: Moscow
On Forums: 12 years 8 months
Thanks: 2802 time(s)
Russian Federation



Ядрённый Swedish Old School Death Metal - всё как в аптеке с вокалом Дрюненского толка!!! (IMG:style_emoticons/default/dwarf-1.gif) (IMG:style_emoticons/default/dwarf-1.gif) (IMG:style_emoticons/default/dwarf-1.gif)


Go to the top of the page
  Insert nick Quick quote
+Quote Post
post Aug 4 2020, 10:19:38
Post #3

Четыре Литра
****
Group: Металариец
Posts: 320
Releases: 0
From: Липецк
On Forums: 12 years 10 months
Thanks: 41 time(s)
Russian Federation


Без слабых мест.


Thanks:
Go to the top of the page
  Insert nick Quick quote
+Quote Post
post Aug 24 2020, 17:53:29
Post #4

Правь статус, ####!111
**************
Group: Металариец
Posts: 4,544
Releases: 19
From: Holland
On Forums: 15 years 10 months
Thanks: 1560 time(s)
Netherlands


Шикарный звук. Мелодично, почти Melodic Death/Thrash, местами аж напомнило At The Gates.
Релиз очень приятный.


Thanks:
Go to the top of the page
  Insert nick Quick quote
+Quote Post
post Aug 24 2020, 20:40:39
Post #5

MDM-Thrash Metal
**************
Group: Металариец
Posts: 11,062
Releases: 1466
From: Одесса
On Forums: 14 years 9 months
Thanks: 35034 time(s)
Ukraine




Добротный опус!
Go to the top of the page
  Insert nick Quick quote
+Quote Post

Reply to this topicStart new topic
2 User(s) are reading this topic (2 Guests and 0 Anonymous Users)
0 Members:

 



- Lo-Fi Version Support form
Copyrights and abuse reports form
Time is now: 18th May 2022 - 13:27:45