Welcome Guest ( Log In | Register )

> Selenseas - The Outer Limits (2020), Power Metal
post Aug 6 2020, 12:07:14
Post #1

Serial Uploader
Group Icon
Group: V.I.P
Posts: 37,642
Releases: 35808
From: Lithuania
On Forums: 13 years 4 months
Thanks: 434134 time(s)
Lithuania


(IMG:https://metalarea.org/images/audiocovers/2020_Aug/acov_tid340435_thumb.jpg)

*Artist: Selenseas
*Album: The Outer Limits
*Year: 2020
*Genre: Power Metal
*Country: Russian Federation (IMG:https://metalarea.org/forum/style_images/flags/Russian%20Federation.png)
*Format: mp3@CBR320kbps
*Size: 131MB

Tracklist:
01. Intro 00:54
02. Hope 04:34
03. Frigate 05:10
04. Time 04:28
05. Asgard 04:40
06. The Revenge of the Ifrit 06:01
07. Dante 05:42
08. The Mirror 04:15
09. The Flame of Dawn 03:33
10. The Milky Way 04:15
11. The Outer Limits 04:30
12. The Mirror (Radio Edit) (Bonus Track) 03:13
13. The Milky Way (Alternative Version) (Bonus Track) 04:06
******************************
Total playing time: 55:21

(IMG:https://metalarea.org/images/myspace.png)


Preview 4
(IMG:https://metalarea.org/images/youtube.png)

Technical info
(IMG:https://metalarea.org/images/spectrogram/2020_Aug/f605bd20519b82b40eed41984a73feae.png)
Input File: 02 - Hope.mp3
Channels : 2
Sample Rate : 44100
Precision : 16-bit
Duration : 00:04:33.62 = 12066818 samples = 20521.8 CDDA sectors
File Size : 11.0M
Bit Rate : 322k
Sample Encoding: MPEG audio (layer I, II or III)
Comments :
Title=Hope
Artist=Selenseas
Album=The Outer Limits
Tracknumber=2
Year=2020
Discnumber=1



Register


Go to the top of the page
  Insert nick Quick quote
+Quote Post
 
Start new topic
Replies (1 - 7)
post Aug 6 2020, 16:15:26
Post #2

Dark Ambient Shoujo
**********
Group: Металариец
Posts: 1,411
Releases: 3
On Forums: 12 years 9 months
Thanks: 870 time(s)
Russian Federation


Это даже по меркам постсовкового павера уныло.
Go to the top of the page
  Insert nick Quick quote
+Quote Post
post Aug 6 2020, 17:40:38
Post #3

Маньяк
**********
Group: Металариец
Posts: 1,413
Releases: 5
From: Нью-Васюки
On Forums: 15 years 4 months
Thanks: 422 time(s)
Russian Federation


фуфло какое то
Go to the top of the page
  Insert nick Quick quote
+Quote Post
post Aug 6 2020, 20:53:09
Post #4

Шесть Литров
******
Group: Металариец
Posts: 564
Releases: 0
From: Москва
On Forums: 14 years 11 months
Thanks: 123 time(s)
Russian Federation


А мне понравилось. Бодрый динамичный материал, с мелодиями порядок, акцент и косяки вокалиста не сильно портят картину. Любителям жанра, несмотря на неоригинальность, зайдет, отлично слушается фоном под работу/спорт.
Go to the top of the page
  Insert nick Quick quote
+Quote Post
post Aug 7 2020, 06:29:50
Post #5

Шесть Литров
******
Group: Металариец
Posts: 656
Releases: 0
On Forums: 12 years 3 months
Thanks: 168 time(s)
Ukraine


зайдет, отлично слушается фоном под работу/спорт.

Сейчас большинство альбомов именно фоном и идёт к сожелению,редко когда именно зепляют!!!
Go to the top of the page
  Insert nick Quick quote
+Quote Post
post Aug 8 2020, 02:14:26
Post #6

Ъ
**************
Group: Металариец
Posts: 10,746
Releases: 9
On Forums: 12 years 9 months
Thanks: 2188 time(s)
Sweden


Третьесорт.
Go to the top of the page
  Insert nick Quick quote
+Quote Post
post Aug 12 2020, 13:54:42
Post #7

Семь Литров
*******
Group: Металариец
Posts: 723
Releases: 0
From: Одесса-мама
On Forums: 12 years 8 months
Thanks: 254 time(s)
Ukraine


Спасибо!
Может, и третьесорт, но хотя бы, слушать можно.
А все остальные хэви-павер-альбомы, выложенные в ближайшее время вплоть до последнего релиза а МА, по сравнению с этим - полное УГ! Вообще, нечего слушать!
Короче, дело вкуса...
Go to the top of the page
  Insert nick Quick quote
+Quote Post
post Oct 13 2021, 17:38:05
Post #8

Правь статус, ####!111
**************
Group: Металариец
Posts: 5,115
Releases: 468
From: MoscoW
On Forums: 14 years 10 months
Thanks: 7543 time(s)
Russian Federation


SELENSEAS:
Go to the top of the page
  Insert nick Quick quote
+Quote Post

Reply to this topicStart new topic
2 User(s) are reading this topic (2 Guests and 0 Anonymous Users)
0 Members:

 



- Lo-Fi Version Support form
Copyrights and abuse reports form
Time is now: 16th October 2021 - 04:09:33