Welcome Guest ( Log In | Register )

> Temple Nightside - Pillars Of Damnation (2020), Black/Death Metal
post Aug 6 2020, 13:11:51
Post #1

Правь статус, ####!111
**************
Group: Металариец
Posts: 2,307
Releases: 1860
From: Praha
On Forums: 7 years 3 months
Thanks: 49345 time(s)
Czech Republic


(IMG:http://metalarea.org/images/audiocovers/2020_Aug/acov_tid340438_thumb.jpg)

*Artist: Temple Nightside
*Album: Pillars Of Damnation
*Year: 2020
*Genre: Black/Death Metal
*Country: Australia (IMG:http://metalarea.org/forum/style_images/flags/Australia.png)
*Format: mp3@CBR320kbps
*Size: 104MB

Tracklist:
1. Contagion of Heresy 05:29
2. Death Eucharist 05:12
3. Morose Triumphalis 05:33
4. The Carrion Veil 05:50
5. Wreathed in Agony 04:10
6. Blood Cathedral 03:46
7. In Absentia 04:26
8. Damnation 09:22
******************************
Total playing time: 43:48



Extended info
Iron Bonehead Productions


Technical info
(IMG:http://metalarea.org/images/spectrogram/2020_Aug/30bd9f4cca03c6f5ad33dc48b18896ca.png)
Input File: 02. Death Eucharist.mp3
Channels : 2
Sample Rate : 44100
Precision : 16-bit
Duration : 00:05:12.97 = 13801845 samples = 23472.5 CDDA sectors
File Size : 12.9M
Bit Rate : 331k
Sample Encoding: MPEG audio (layer I, II or III)
Comments :
Title=Death Eucharist
Artist=Temple Nightside
Album=Pillars of Damnation
Tracknumber=02/08
Year=2020
Genre=Black / Death Metal



Register


Go to the top of the page
  Insert nick Quick quote
+Quote Post
 
Start new topic
Replies (1 - 10)
post Aug 7 2020, 08:14:39
Post #2

Три Литра
***
Group: Завсегдатай
Posts: 228
Releases: 0
From: GREAT TARTARIA
On Forums: 10 years 6 months
Thanks: 90 time(s)
Unknown


Спсб.
резво
Go to the top of the page
  Insert nick Quick quote
+Quote Post
post Aug 7 2020, 08:17:22
Post #3

Absorbence
***********
Group: Металариец
Posts: 1,791
Releases: 216
From: Vastland Abyss of Cthulhu
On Forums: 14 years 8 months
Thanks: 3950 time(s)
Canada


Register


Go to the top of the page
  Insert nick Quick quote
+Quote Post
post Aug 7 2020, 08:18:59
Post #4

Crush! Kill! Destroy!
**************
Group: Металариец
Posts: 5,686
Releases: 15
From: Kaliningrad
On Forums: 13 years 8 months
Thanks: 5406 time(s)
Russian Federation


Отлично просто! Ровно по дискографии идут антиподы, без отклонений от курса партии!
Go to the top of the page
  Insert nick Quick quote
+Quote Post
post Aug 7 2020, 08:57:07
Post #5

Правь статус, ####!111
Group Icon
Group: V.I.P
Posts: 4,673
Releases: 318
On Forums: 10 years 5 months
Thanks: 13294 time(s)
Russian Federation


Все как надо. То, чего я ожидал услышать. Отличный альбом.


Thanks:
(1) Metalass,
Go to the top of the page
  Insert nick Quick quote
+Quote Post
post Aug 7 2020, 09:10:44
Post #6

melofags sniper
**************
Group: Металариец
Posts: 6,298
Releases: 0
On Forums: 13 years 5 months
Thanks: 6947 time(s)
Unknown


Interesting release. (IMG:style_emoticons/default/9.gif)


Thanks:
Go to the top of the page
  Insert nick Quick quote
+Quote Post
post Aug 7 2020, 09:18:05
Post #7

Чёткий пацан из Автово...
Group Icon
Group: V.I.P
Posts: 9,348
Releases: 40
From: Город над вольной Невой...
On Forums: 15 years 1 month
Thanks: 4818 time(s)
Russian Federation


Какой мясистый брутальный олдовый звук-то (IMG:style_emoticons/default/19.gif)
Да ещё и приглушенный. Прямо-таки отсыл в 90-ые!


Thanks:
(1) Metalass,
Go to the top of the page
  Insert nick Quick quote
+Quote Post
post Aug 7 2020, 09:42:51
Post #8

Black Metal War
***********
Group: Металариец
Posts: 1,825
Releases: 0
From: R'lyeh
On Forums: 4 years 7 months
Thanks: 2391 time(s)
Poland


Great album. (IMG:style_emoticons/default/9.gif)


Go to the top of the page
  Insert nick Quick quote
+Quote Post
post Aug 8 2020, 01:09:48
Post #9

Group: Дух
Posts: 9
Releases: 0
On Forums: 14 years 1 week
Thanks: 0 time(s)
Poland


QUOTE(luxxul @ Aug 7 2020, 11:14:39) *
Спсб.
резво


flac?
Go to the top of the page
  Insert nick Quick quote
+Quote Post
post Aug 9 2020, 11:10:41
Post #10

Grind the Human Scum
**********
Group: Металариец
Posts: 1,056
Releases: 18
On Forums: 14 years 6 months
Thanks: 1066 time(s)
Russian Federation


Register


Go to the top of the page
  Insert nick Quick quote
+Quote Post
post Aug 10 2020, 11:28:12
Post #11

Самый Тихий Час
**************
Group: Металариец
Posts: 6,493
Releases: 6
On Forums: 11 years 8 months
Thanks: 3046 time(s)
Unknown


Кажется звук на этом проработали лучше чем раньше, сделав происходящее еще более болотистым и вязким.
Гууустой ком мрачной грязи.


Thanks:
Go to the top of the page
  Insert nick Quick quote
+Quote Post

Reply to this topicStart new topic
2 User(s) are reading this topic (2 Guests and 0 Anonymous Users)
0 Members:

 



- Lo-Fi Version Support form
Copyrights and abuse reports form
Time is now: 4th August 2021 - 13:55:14