Welcome Guest ( Log In | Register )

> И неформату есть предел.

Рэп/хип-хоп/шансон/поп удаляются. Для них есть свои порталы.

> Emma Ruth Rundle - On Dark Horses (2018), Folk/Post Rock/Experimental
post Aug 8 2020, 15:37:22
Post #1

ME[ta]LLOMAN
**************
Group: Металариец
Posts: 5,010
Releases: 3
From: Avdeyevka
On Forums: 15 years 3 months
Thanks: 2060 time(s)
Honduras


(IMG:http://metalarea.org/images/audiocovers/2020_Aug/acov_tid340542_thumb.jpg)

*Artist: Emma Ruth Rundle
*Album: On Dark Horses
*Year: 2018
*Genre: Folk/Post Rock/Experimental
*Country: United States (IMG:http://metalarea.org/forum/style_images/flags/United%20States.png)
*Format: mp3@CBR320kbps
*Size: 93MB

Tracklist:
01. Fever Dreams
02. Control
03. Darkhorse
04. Races
05. Dead Set Eyes
06. Light Song
07. Apathy on the Indiana Border
08. You Don't Have To Cry
******************************
Total playing time: 42:06


Preview 2

Extended info
(IMG:https://i84.fastpic.ru/thumb/2016/1002/e1/5ecab7d70ebe18bcbb69e646ce139ee1.jpeg)
Emma Ruth Rundle - Guitars, Vocals, Flute, Percussion
Dylan Naydon - Drums, Percussion
Evan Patterson - Guitar, Vocals, Piano
Todd Cook - Bass


Technical info
(IMG:http://metalarea.org/images/spectrogram/2020_Aug/7648acfb08c310a4e2b22e21a522cc35.png)
Input File: 04 Races.mp3
Channels : 2
Sample Rate : 44100
Precision : 16-bit
Duration : 00:05:34.66 = 14758638 samples = 25099.7 CDDA sectors
File Size : 13.4M
Bit Rate : 321k
Sample Encoding: MPEG audio (layer I, II or III)
Comments :
Title=Races
Artist=Emma Ruth Rundle
Album=On Dark Horses
Tracknumber=4/8
Year=2018
Genre=Indie



Register


Go to the top of the page
  Insert nick Quick quote
+Quote Post
 
Start new topic
Replies (1 - 2)
post Aug 9 2020, 15:27:40
Post #2

градусы контрастов
**************
Group: Металариец
Posts: 5,130
Releases: 0
On Forums: 5 years 6 months
Thanks: 3326 time(s)
Unknown


слушал, лучше чем прошлый альбом, который показался мне мечтательным, но легковесным, новый материал осенний и апатичный.
и более жёсткий.
Go to the top of the page
  Insert nick Quick quote
+Quote Post
post Feb 20 2021, 11:35:07
Post #3

Правь статус, ####!111
**************
Group: Металариец
Posts: 49,020
Releases: 848
On Forums: 12 years 2 months
Thanks: 44074 time(s)
Russian Federation


Совместный сингл Челси и Эммы (IMG:style_emoticons/default/20.gif) (IMG:style_emoticons/default/10.gif)

Go to the top of the page
  Insert nick Quick quote
+Quote Post

Reply to this topicStart new topic
2 User(s) are reading this topic (2 Guests and 0 Anonymous Users)
0 Members:

 



- Lo-Fi Version Support form
Copyrights and abuse reports form
Time is now: 1st August 2021 - 12:02:08