Welcome Guest ( Log In | Register )

> И неформату есть предел.

Рэп/хип-хоп/шансон/поп удаляются. Для них есть свои порталы.

 
Reply to this topicStart new topic
> Deche-Charge & Weluvpot - Deche-Charge Split C60 With Weluvpot [split] (2008), Noisecore | Noise (D)
post Aug 8 2020, 16:51:39
Post #1

Семь Литров
*******
Group: Металариец
Posts: 798
Releases: 168
On Forums: 1 year 7 months
Thanks: 2125 time(s)
Canada


(IMG:https://metalarea.org/images/audiocovers/2020_Aug/acov_tid340544_thumb.jpg)

*Artist: Deche-Charge & Weluvpot
*Album: Deche-Charge Split C60 With Weluvpot [split]
*Year: 2008
*Genre: Noisecore | Noise
*Country: Canada (IMG:https://metalarea.org/forum/style_images/flags/Canada.png) | United States (IMG:https://metalarea.org/forum/style_images/flags/United%20States.png)
*Format: mp3@CBR320kbps
*Size: 138MB

Tracklist:
1. Deche-Charge 29:39
2. Weluvpot 29:19
******************************
Total playing time: 58:58

Extended info
Deche-Charge (Can) / Weluvpot (US) - [Split tape] (2008)

Bitrate: 320 Size: 138 MB
Bitrate: FLAC Size: 382 MB

cassette tape rip + scans

Label: Sludgesicle Records
Format: Cassette, C60

https://www.discogs.com/Deche-Charge-Weluvpot-Split-Tape/release/14599717

Deche-Charge
Profile:
Noisecore band from Quebec, Canada since August 1990. Initially influenced by Sore Throat 101 song LP and Napalm Death 'You Suffer', later influenced by Meat Shits, 7MON and Anal Cunt.
Main members are Chain Saw, Dan-Charge, Fred End aka Fred Mesrine and Dallaire

Weluvpot
Members:
Jeff , Mike , Mike Sludgesicle, Ryan

58 minutes 58 seconds
(I am not splitting the tracks.)
---------------------------------------------------------------------
A1 –Deche-Charge Unreleased Session 01/2006 (283 Trax) 5:21
A2 –Deche-Charge Noise Against The Machine Remix (1 Track) 0:16
A3 –Deche-Charge Garbage Gods 2 Remix (141 Trax) 1:53
A4 –Deche-Charge Unreleased Rehearsal 18/10/99 (231 Trax) 17:54
A5 –Deche-Charge Masturbation Demo #1 Remix 1:12
A6 –Deche-Charge Outro - Violent Cumshots Remix 1:39

B1 –Weluvpot Did I Cringe
B2 –Weluvpot Ejaculate
B3 –Weluvpot David Burkowitz
B4 –Weluvpot Oi!
B5 –Weluvpot Ron Paul
B6 –Weluvpot Lords Of Thunder
B7 –Weluvpot Vanilla Ice Deserves A Comeback
B8 –Weluvpot Ice Ice Baby Version 2
B9 –Weluvpot Mary Albert
B10 –Weluvpot Jeff's Thunder
B11 –Weluvpot I Fuck Myself
B12 –Weluvpot DUI
B13 –Weluvpot Free The WM3
B14 –Weluvpot Fuckin It And Eatin It
B15 –Weluvpot Asians Are Weird
B16 –Weluvpot Cheech Marin
B17 –Weluvpot Everytime I Look At You I Wanna Die
B18 –Weluvpot Jim Morrison
B19 –Weluvpot Your An Insult To The Human Race
B20 –Weluvpot Who Farted In The Elevator
B21 –Weluvpot I Don't Give A Fuck
B22 –Weluvpot 7MON
B23 –Weluvpot Elmer Fudd
B24 –Weluvpot Crooked Cops (K9)
B25 –Weluvpot Kill Yourself
B26 –Weluvpot Keep It In The Closet
B27 –Weluvpot I Really Want To Fuck Your Mom
B28 –Weluvpot Rodeo Carnage
B29 –Weluvpot Listen To Ween
B30 –Weluvpot I Just Smoked A Whole Bunch Of Crack
B31 –Weluvpot We Are The Lords Of Metal
B32 –Weluvpot It's Friday Night


Technical info
(IMG:https://metalarea.org/images/spectrogram/2020_Aug/1d33122a103f23059f6b3d6287a5586c.png)
Input File: Deche-Charge [2008 Split C60 with Weluvpot].mp3
Channels : 2
Sample Rate : 44100
Precision : 16-bit
Duration : 00:29:40.13 = 78503909 samples = 133510 CDDA sectors
File Size : 71.9M
Bit Rate : 323k
Sample Encoding: MPEG audio (layer I, II or III)
Comments :
Title=Deche-Charge [2008 Split C60 with Weluvpot]
Album=Deche-Charge (Can) / Weluvpot (US) - [Split tape]
Year=2008
Genre=Noise



Register


Go to the top of the page
  Insert nick Quick quote
+Quote Post

Reply to this topicStart new topic
1 User(s) are reading this topic (1 Guests and 0 Anonymous Users)
0 Members:

 



- Lo-Fi Version Support form
Copyrights and abuse reports form
Time is now: 27th September 2020 - 05:23:46