Welcome Guest ( Log In | Register )

> Decoherence - Unitarity (2020), Black Metal (D10)
post Aug 10 2020, 18:03:09
Post #1

Правь статус, ####!111
**************
Group: Металариец
Posts: 4,086
Releases: 3741
From: Одесса
On Forums: 13 years 3 weeks
Thanks: 40724 time(s)
Ukraine


(IMG:http://metalarea.org/images/audiocovers/2020_Aug/acov_tid340593_thumb.jpg)

*Artist: Decoherence
*Album: Unitarity
*Year: 2020
*Genre: Black Metal
*Country: United Kingdom (IMG:http://metalarea.org/forum/style_images/flags/United%20Kingdom.png)
*Format: mp3@CBR320kbps
*Size: 106MB

Tracklist:
1. Final Boundary State 05:59
2. Equilibrium Unreached 06:04
3. Metastable Phase Transition 09:35
4. Torsion Formed 07:54
5. Remnants 08:14
6. Unitarity Violation 06:45
******************************
Total playing time: 44:31



Extended info
Line - up:

Stroda - All instruments
Prior - Noise, Electronics
Tahazu - Vocals (Cryptic Evil, Decarabia, Monarch of Blood, Ordo Malum, Tahazu, The Anointing Maelstrom, We Are Beasts, ex-SludgeFactory, ex-Fetal Harm, ex-In Time of the Plague, ex-Nihil Rising)


Technical info
(IMG:http://metalarea.org/images/spectrogram/2020_Aug/526686393a5dcf929a5c2192ac4c8b1b.png)
Input File: 04 Torsion Formed.mp3
Channels : 2
Sample Rate : 44100
Precision : 16-bit
Duration : 00:07:54.10 = 20907766 samples = 35557.4 CDDA sectors
File Size : 19.0M
Bit Rate : 321k
Sample Encoding: MPEG audio (layer I, II or III)
Comments :
Title=Torsion Formed
Artist=Decoherence
Album=Unitarity
Tracknumber=4
Year=2020
Genre=138



Register


Go to the top of the page
  Insert nick Quick quote
+Quote Post
 
Start new topic
Replies (1 - 4)
post Dec 19 2020, 10:15:18
Post #2

Пять Литров
*****
Group: Металариец
Posts: 427
Releases: 0
From: Vilnius
On Forums: 14 years 4 months
Thanks: 144 time(s)
Lithuania


мрачненько...
Go to the top of the page
  Insert nick Quick quote
+Quote Post
post Dec 19 2020, 12:54:25
Post #3

Восемь Литров
********
Group: Металариец
Posts: 804
Releases: 2
On Forums: 2 years 2 weeks
Thanks: 613 time(s)
Russian Federation


Добротный BAN-воршип.
Go to the top of the page
  Insert nick Quick quote
+Quote Post
post Dec 20 2020, 20:44:29
Post #4

Восемь Литров
********
Group: Металариец
Posts: 838
Releases: 0
On Forums: 13 years 8 months
Thanks: 375 time(s)
Poland


космос (IMG:style_emoticons/default/20.gif)
Go to the top of the page
  Insert nick Quick quote
+Quote Post
post Dec 31 2020, 19:48:27
Post #5

Правь статус, ####!111
**************
Group: Металариец
Posts: 4,800
Releases: 1472
From: Brazil
On Forums: 9 years 4 months
Thanks: 55046 time(s)
Brazil


Register

mp3@CBR320kbps


Go to the top of the page
  Insert nick Quick quote
+Quote Post

Reply to this topicStart new topic
2 User(s) are reading this topic (2 Guests and 0 Anonymous Users)
0 Members:

 



- Lo-Fi Version Support form
Copyrights and abuse reports form
Time is now: 23rd June 2021 - 19:30:40