Welcome Guest ( Log In | Register )

> И неформату есть предел.

Рэп/хип-хоп/шансон/поп удаляются. Для них есть свои порталы.

> Deep Purple - Bananas (2003), Classic Rock (D29)
post Aug 13 2020, 15:26:31
Post #1

Правь статус, ####!111
**************
Group: Металариец
Posts: 47,329
Releases: 742
On Forums: 11 years 3 months
Thanks: 40267 time(s)
Russian Federation


(IMG:http://metalarea.org/images/audiocovers/2020_Aug/acov_tid340667_thumb.jpg)

*Artist: Deep Purple
*Album: Bananas
*Year: 2003
*Genre: Classic Rock
*Country: United Kingdom (IMG:http://metalarea.org/forum/style_images/flags/United%20Kingdom.png)
*Format: mp3@CBR320kbps
*Size: 120MB

Tracklist:
1. House Of Pain 03:34
2. Sun Goes Down 04:11
3. Haunted 04:23
4. Razzle Dazzle 03:29
5. Silver Tongue 04:04
6. Walk On 07:04
7. Picture Of Innocence 05:11
8. I Got Your Number 06:01
9. Never A Word 03:47
10. Bananas 04:51
11. Doing It Tonight 03:29
12. Contact Lost 01:27
******************************
Total playing time: 51:31

(IMG:http://metalarea.org/images/youtube.png)

Technical info
(IMG:http://metalarea.org/images/spectrogram/2020_Aug/1d5d9ba27fc511699d83cf3948dc6ebb.png)
Input File: 01. House Of Pain.mp3
Channels : 2
Sample Rate : 44100
Precision : 16-bit
Duration : 00:03:34.11 = 9442339 samples = 16058.4 CDDA sectors
File Size : 8.60M
Bit Rate : 321k
Sample Encoding: MPEG audio (layer I, II or III)
Comments :
Title=House Of Pain
Artist=Deep Purple
Album=Bananas
Tracknumber=01/12
Year=2003
Genre=Hard Rock



Register


Go to the top of the page
  Insert nick Quick quote
+Quote Post
 
Start new topic
Replies (1 - 4)
post Aug 13 2020, 17:50:43
Post #2

Правь статус, ####!111
**************
Group: Металариец
Posts: 47,329
Releases: 742
On Forums: 11 years 3 months
Thanks: 40267 time(s)
Russian Federation


Достаточно интересный поворот в творчестве. Альбом этакий развязный рокенролл, не очень много общего имеющий с прежним творчеством команды.

Следующие трэки - меланхоличная, задумчивая баллада Walk On и душевный инструментал Contact Lost - особенно понравились.

Go to the top of the page
  Insert nick Quick quote
+Quote Post
post Aug 13 2020, 19:07:49
Post #3

За Русь в метро взорвусь
**************
Group: Металариец
Posts: 2,946
Releases: 2
From: Yaroslavl
On Forums: 4 years 1 week
Thanks: 1849 time(s)
Northern Mariana Islands


я бы назвал его...хулиганским, начиная с обложки.
Но это не отменяет крутости в подаче и реализации материала, все таки это ДП.
Go to the top of the page
  Insert nick Quick quote
+Quote Post
post Aug 13 2020, 19:08:04
Post #4

Маньяк
**********
Group: Металариец
Posts: 1,373
Releases: 0
From: Мелитополь
On Forums: 12 years 8 months
Thanks: 989 time(s)
Ukraine


тут Haunted самая мощная
Go to the top of the page
  Insert nick Quick quote
+Quote Post
post Aug 13 2020, 19:17:03
Post #5

Правь статус, ####!111
**************
Group: Металариец
Posts: 47,329
Releases: 742
On Forums: 11 years 3 months
Thanks: 40267 time(s)
Russian Federation


ЦИТАТА(Faust_Vulkan_16 @ Aug 13 2020, 21:07:49) *
я бы назвал его...хулиганским,


Название альбома с этим вполне коррелирует, кстати. (IMG:style_emoticons/default/bye.gif)
Go to the top of the page
  Insert nick Quick quote
+Quote Post

Reply to this topicStart new topic
1 User(s) are reading this topic (1 Guests and 0 Anonymous Users)
0 Members:

 



- Lo-Fi Version Support form
Copyrights and abuse reports form
Time is now: 20th September 2020 - 11:19:27