Welcome Guest ( Log In | Register )

> Brain Dead & Silent Death - Death And Dead [split] (1994), Death Metal | Death Metal (D13)(D8)
post Aug 14 2020, 11:11:41
Post #1

Подвал
**************
Group: Металариец
Posts: 16,183
Releases: 9279
From: Far East (Khabarovsk)
On Forums: 12 years 6 months
Thanks: 104999 time(s)
Russian Federation


(IMG:http://metalarea.org/images/audiocovers/2020_Aug/acov_tid340690_thumb.jpg)

*Artist: Brain Dead & Silent Death
*Album: Death And Dead [split]
*Year: 1994
*Genre: Death Metal | Death Metal
*Country: Malaysia (IMG:http://metalarea.org/forum/style_images/flags/Malaysia.png) | Malaysia (IMG:http://metalarea.org/forum/style_images/flags/Malaysia.png)
*Format: mp3@CBR192kbps
*Size: 54MB

Tracklist:
Brain Dead side:
1. From The Ecstasy 04:57
2. Unholy Sins 05:05
3. Eternal War 05:02
4. Twisted Soul 04:47
Silent Death side:
5. Before The Sunrise 04:36
6. Twisted Faith 03:07
7. Book Of Death 05:07
8. Preacher Of The Dark 07:28
******************************
Total playing time: 40:09




Extended info
Death and Dead split tape was released by former Brain Dead label, Dark Journey Records in 1994 after the official release of both band's debut album. The split release marking the split up of Brain Dead with Dark Journey Records as the company puts high profit for this release which disappoints Brain Dead. Tracks from both bands were taken from their debut album.


Technical info
(IMG:http://metalarea.org/images/spectrogram/2020_Aug/1e4df2706d418786fb7bc1fc5016f6bd.png)
Input File: 01-Brain Dead - From the Ecstasy.mp3
Channels : 2
Sample Rate : 44100
Precision : 16-bit
Duration : 00:04:57.86 = 13135714 samples = 22339.6 CDDA sectors
File Size : 7.15M
Bit Rate : 192k
Sample Encoding: MPEG audio (layer I, II or III)
Comments :
Title=From the Ecstasy
Artist=Brain Dead
Album=Death & Dead split
Tracknumber=01
Year=1994
Genre=Death Metal



Register


Go to the top of the page
  Insert nick Quick quote
+Quote Post
 
Start new topic
Replies (1 - 1)
post Aug 15 2020, 04:19:59
Post #2

Grind the Human Scum
**********
Group: Металариец
Posts: 1,056
Releases: 18
On Forums: 14 years 6 months
Thanks: 1066 time(s)
Russian Federation


Благодарю! несколько лет назад плотно искал этот сплит, но так и не нашёл


Thanks:
Go to the top of the page
  Insert nick Quick quote
+Quote Post

Reply to this topicStart new topic
2 User(s) are reading this topic (2 Guests and 0 Anonymous Users)
0 Members:

 



- Lo-Fi Version Support form
Copyrights and abuse reports form
Time is now: 4th August 2021 - 13:14:41