Welcome Guest ( Log In | Register )

> Nihillin - Sociokat (2020), Black Metal
post Aug 18 2020, 15:41:34
Post #1

Правь статус, ####!111
**************
Group: Металариец
Posts: 29,685
Releases: 21836
From: Г.Харьков
On Forums: 10 years 1 month
Thanks: 452823 time(s)
Unknown


(IMG:https://metalarea.org/images/audiocovers/2020_Aug/acov_tid340776_thumb.jpg)

*Artist: Nihillin
*Album: Sociokat
*Year: 2020
*Genre: Black Metal
*Country: Czech Republic (IMG:https://metalarea.org/forum/style_images/flags/Czech%20Republic.png)
*Format: mp3@CBR320kbps
*Size: 90MB

Tracklist:
1. Nihillin 05:29
2. Cold Bitch 03:08
3. Až příjde tvůj čas 03:52
4. Démon z Transilvanie 04:37
5. Jako oheň a led 05:52
6. Vize konce 03:01
7. Black and Roll nenávisti (Bonus) 04:51
8. Sebekult (Bonus) 03:41
9. Poslední Cesta (Bonus) 04:24
******************************
Total playing time: 38:55




Extended info
S.D Bass (2016-present)
Gulage Drums (2016-present)
See also: Torc
Frankie Guitar (2016-present)
1614 Vocals (2016-present)
1218 Guitars (2019-present)


Technical info
(IMG:https://metalarea.org/images/spectrogram/2020_Aug/fe66ca4ab6f3bf46810c3e41724d9c98.png)
Input File: 05 Jako oheň a led.mp3
Channels : 2
Sample Rate : 44100
Precision : 16-bit
Duration : 00:05:52.31 = 15536695 samples = 26423 CDDA sectors
File Size : 14.3M
Bit Rate : 324k
Sample Encoding: MPEG audio (layer I, II or III)
Comments :
Title=Jako oheň a led
Artist=Nihillin
Album=Sociokat
Tracknumber=5/9
Year=2020-20-20
Genre=Metal
Discnumber=1/1



Register


Go to the top of the page
  Insert nick Quick quote
+Quote Post
 
Start new topic
Replies (1 - 3)
post Aug 20 2020, 14:29:06
Post #2

Четыре Литра
****
Group: Металариец
Posts: 380
Releases: 5
On Forums: 15 years 3 months
Thanks: 310 time(s)
Russian Federation


И здесь, и на ютубе сама группа себя позиционирует как блэк метал комманду, но я слышу дез метал: риффы, вокал, структура, - всё дезня. ИНогда вкрапления блэковой структуры проскакивают. Но это death, имо


Thanks:
(1) judaz,
Go to the top of the page
  Insert nick Quick quote
+Quote Post
post Aug 21 2020, 10:28:20
Post #3

кручу наждак
**************
Group: Металариец
Posts: 5,576
Releases: 107
From: Самара
On Forums: 12 years 1 month
Thanks: 4435 time(s)
Russian Federation


Вот и мне показалось, что без учета бонус-треков (их почему-то на Bandcamp не выложили), блэковой тут можно назвать от силы одну песню, и именно 4-ю.


Thanks:
(1) goxther,
Go to the top of the page
  Insert nick Quick quote
+Quote Post
post Nov 25 2021, 13:07:19
Post #4

Семь Литров
*******
Group: Металариец
Posts: 717
Releases: 15
From: Brasil - Sao Paulo
On Forums: 2 years 2 months
Thanks: 590 time(s)
Brazil


Black or Death still a very nice album (IMG:style_emoticons/default/20.gif)
Go to the top of the page
  Insert nick Quick quote
+Quote Post

Reply to this topicStart new topic
1 User(s) are reading this topic (1 Guests and 0 Anonymous Users)
0 Members:

 



- Lo-Fi Version Support form
Copyrights and abuse reports form
Time is now: 7th July 2022 - 11:28:13