Welcome Guest ( Log In | Register )

> Brimstone Coven - The Woes Of A Mortal Earth (2020), Doom Metal/Psychedelic Rock (D6)
post Aug 24 2020, 13:10:32
Post #1

Правь статус, ####!111
**************
Group: Металариец
Posts: 48,991
Releases: 846
On Forums: 12 years 1 month
Thanks: 43988 time(s)
Russian Federation


(IMG:http://metalarea.org/images/audiocovers/2020_Aug/acov_tid340953_thumb.jpg)

*Artist: Brimstone Coven
*Album: The Woes Of A Mortal Earth
*Year: 2020
*Genre: Doom Metal/Psychedelic Rock
*Country: United States (IMG:http://metalarea.org/forum/style_images/flags/United%20States.png)
*Format: mp3@CBR320kbps
*Size: 82MB

Tracklist:
1. The Inferno 04:30
2. When the World is Gone 06:09
3. Live With a Ghost 06:54
4. The Darker Half 06:03
5. Secrets of the Earth 04:10
6. Song of Whippoorwill 07:35
******************************
Total playing time: 35:21



Technical info
(IMG:http://metalarea.org/images/spectrogram/2020_Aug/5bd21207034044555a2951f19c0ac6c9.png)
Input File: 05. Secrets Of The Earth.mp3
Channels : 2
Sample Rate : 44100
Precision : 16-bit
Duration : 00:04:10.09 = 11028837 samples = 18756.5 CDDA sectors
File Size : 10.3M
Bit Rate : 331k
Sample Encoding: MPEG audio (layer I, II or III)
Comments :
Title=Secrets Of The Earth
Artist=Brimstone Coven
Album=The Woes Of A Mortal Earth
Tracknumber=5/6
Year=2020
Genre=Rock
Discnumber=1/1



Register


Go to the top of the page
  Insert nick Quick quote
+Quote Post
 
Start new topic
Replies (1 - 5)
post Aug 25 2020, 16:21:01
Post #2

дьявол воплоти
**********
Group: Металариец
Posts: 1,090
Releases: 7
On Forums: 10 years 10 months
Thanks: 1419 time(s)
Ukraine


совсем забыл про них.
хорошая банда, оседлавшая волну оккультного ривайвела.
может быть не такая признанная, как истинные флагманы этого дела, и тем не менее перед нами редких достоинств музыка.
альбом прекрасен, как ни тяжело мне это признавать с оглядкой на автора темы (но даже неисправные часы иногда показывают правильное время).

отдельно стоит отметить иногда солирующую "под селима" гитару.
очень аккуратную, без явных заимствований и спекуляций, и тем не менее вполне узнаваемую.
Go to the top of the page
  Insert nick Quick quote
+Quote Post
post Aug 25 2020, 16:41:35
Post #3

Правь статус, ####!111
**************
Group: Металариец
Posts: 48,991
Releases: 846
On Forums: 12 years 1 month
Thanks: 43988 time(s)
Russian Federation


ЦИТАТА(tormoz @ Aug 25 2020, 18:21:01) *
как ни тяжело мне это признавать с оглядкой на автора темы (но даже неисправные часы иногда показывают правильное время).


На себя оглядывайся почаще, "исправный" Игоряша.

А заливаю я только топовый анформат.

Альбом очень хорош, но предыдущие больше нравились.
Go to the top of the page
  Insert nick Quick quote
+Quote Post
post Aug 25 2020, 16:58:57
Post #4

дьявол воплоти
**********
Group: Металариец
Posts: 1,090
Releases: 7
On Forums: 10 years 10 months
Thanks: 1419 time(s)
Ukraine


ЦИТАТА(vosmidesijatye @ Aug 25 2020, 16:41:35) *
А заливаю я


мне, артамон, поxep, что ты заливаешь.
я этот альбом с рутрекера скачал, еслишо.
Go to the top of the page
  Insert nick Quick quote
+Quote Post
post Aug 25 2020, 19:33:53
Post #5

ME[ta]LLOMAN
**************
Group: Металариец
Posts: 5,009
Releases: 3
From: Avdeyevka
On Forums: 15 years 3 months
Thanks: 2060 time(s)
Honduras


кошшерно.. маххрово, лампово...


Thanks:
Go to the top of the page
  Insert nick Quick quote
+Quote Post
post Sep 2 2020, 19:00:02
Post #6

кручу наждак
**************
Group: Металариец
Posts: 5,048
Releases: 104
From: Самара
On Forums: 11 years 2 months
Thanks: 4076 time(s)
Russian Federation


Расслабленный музон. Даже чересчур. Прошлый был пободрее и поинтересней.
Go to the top of the page
  Insert nick Quick quote
+Quote Post

Reply to this topicStart new topic
1 User(s) are reading this topic (1 Guests and 0 Anonymous Users)
0 Members:

 



- Lo-Fi Version Support form
Copyrights and abuse reports form
Time is now: 24th July 2021 - 09:59:01