Welcome Guest ( Log In | Register )

Объявления

* gmail.com упорно продолжает считать почту с нас "unsolicited" и отбивает в том числе и письма активации, поэтому просьба использовать альтернативные почтовые ящики.
------------
* gmail.com continues reject all mail from us as "unsolicited" (activation mails too) therefore please use alternate mail servers.
> Manyac - Death Sentence For Tomorrow (2020), Melodic Thrash Metal
post Aug 31 2020, 00:20:07
Post #1

Правь статус, ####!111
**************
Group: Металариец
Posts: 36,452
Releases: 27181
From: Г.Харьков
On Forums: 12 years 2 months
Thanks: 592535 time(s)
Ukraine


(IMG:http://metalarea.org/images/audiocovers/2020_Aug/acov_tid341147_thumb.jpg)

*Artist: Manyac
*Album: Death Sentence For Tomorrow
*Year: 2020
*Genre: Melodic Thrash Metal
*Country: Slovakia (IMG:http://metalarea.org/forum/style_images/flags/Slovakia.png)
*Format: mp3@CBR320kbps
*Size: 105MB

Tracklist:
1. D.S.F.T. 04:27
2. Tears of Baghdad 05:40
3. March of the Dead 04:57
4. Fuck Them! 03:45
5. Leadershit 04:33
6. ...and the Loop Swings in the Wind 04:16
7. Conclave of Demons 08:00
8. Speed Campaign 03:39
9. Into the War 06:55
******************************
Total playing time: 46:12


Preview 2


Extended info
Martin Horňáček - vocals
Michal 'Košťo' Košťalik - guitar, vocals
Peter Palánky - guitar, vocals
Richard Prešinský - bass
Juraj Kolárik - drums


Technical info
(IMG:http://metalarea.org/images/spectrogram/2020_Aug/f42be4d67b5670c4293346a4b9c98a4c.png)
Input File: 05 - Leadershit.mp3
Channels : 2
Sample Rate : 44100
Precision : 16-bit
Duration : 00:04:33.17 = 12046709 samples = 20487.6 CDDA sectors
File Size : 10.9M
Bit Rate : 320k
Sample Encoding: MPEG audio (layer I, II or III)
Comments :
Title=Leadershit
Artist=Manyac
Album=Death Sentence For Tomorrow
Tracknumber=5
Year=2020
Genre=Thrash Metal



Register


Go to the top of the page
  Insert nick Quick quote
+Quote Post
 
Start new topic
Replies (1 - 3)
post Sep 1 2020, 07:29:38
Post #2

Маньяк
**********
Group: Металариец
Posts: 1,154
Releases: 53
From: Ивантеевка, Московская область
On Forums: 16 years 7 months
Thanks: 1292 time(s)
Russian Federation


Не теша особых надежд, полез на Бэндкэмп послушать шо цэ за мелодик трэш такой. К удивлению обнаружил достаточно качественный и приятный олдскульчик. Уши растут явно из Kreator. И хоть материал вторичен, ни капли не пожалел о потраченном на знакомство времени. Спасибо.


Thanks:
Go to the top of the page
  Insert nick Quick quote
+Quote Post
post Sep 3 2020, 20:29:47
Post #3

Два Литра
**
Group: Завсегдатай
Posts: 127
Releases: 0
On Forums: 16 years 1 month
Thanks: 24 time(s)
Russian Federation


Ice Gnoll спасибо за наводку тоже норм зашли ! единственное вокал раздражает!


Thanks:
Go to the top of the page
  Insert nick Quick quote
+Quote Post
post Sep 4 2020, 20:31:18
Post #4

MDM-Thrash Metal
**************
Group: Металариец
Posts: 12,538
Releases: 1749
From: Одесса
On Forums: 16 years 11 months
Thanks: 40596 time(s)
Ukraine


Сыграно неплохо, но вот вокал и манера исполнения не понравились.
Go to the top of the page
  Insert nick Quick quote
+Quote Post

Reply to this topicStart new topic
2 User(s) are reading this topic (2 Guests and 0 Anonymous Users)
0 Members:

 



- Lo-Fi Version Support form
Copyrights and abuse reports form
Time is now: 23rd July 2024 - 06:17:00