Welcome Guest ( Log In | Register )

> Stigmata Diaboli - The Coded Devil (2020), Black/Death Metal
post Sep 1 2020, 22:14:10
Post #1

Правь статус, ####!111
**************
Group: Металариец
Posts: 4,800
Releases: 1472
From: Brazil
On Forums: 9 years 5 months
Thanks: 55244 time(s)
Brazil


(IMG:http://metalarea.org/images/audiocovers/2020_Sep/acov_tid341189_thumb.jpg)

*Artist: Stigmata Diaboli
*Album: The Coded Devil
*Year: 2020
*Genre: Black/Death Metal
*Country: Poland (IMG:http://metalarea.org/forum/style_images/flags/Poland.png)
*Format: mp3@CBR320kbps
*Size: 95MB

Tracklist:
1. Przeistoczenie 06:12
2. Odwieczny bunt 03:46
3. Regnum Diaboli 04:09
4. Arise My Demon 04:35
5. Chwała dla życia 02:46
6. Instynkt 04:11
7. Search Your Devil 02:53
8. Dominus Vobiscum 03:43
9. The Cypher 04:50
10. Dominus Vobiscum II - The Final End 03:15
******************************
Total playing time: 40:20



Extended info
Wydawnictwo Muzyczne Psycho


Technical info
(IMG:http://metalarea.org/images/spectrogram/2020_Sep/c88670429c30a7733fb53bd41e495236.png)
Input File: 02 Odwieczny bunt.mp3
Channels : 2
Sample Rate : 44100
Precision : 16-bit
Duration : 00:03:47.07 = 10013699 samples = 17030.1 CDDA sectors
File Size : 9.66M
Bit Rate : 340k
Sample Encoding: MPEG audio (layer I, II or III)
Comments :
Title=Odwieczny bunt
Artist=Stigmata Diaboli
Album=The Coded Devil
Tracknumber=2
Year=2020



Register


Go to the top of the page
  Insert nick Quick quote
+Quote Post
 
Start new topic
Replies (1 - 2)
post Sep 2 2020, 06:31:22
Post #2

Инфернальный Данмер
**********
Group: Металариец
Posts: 1,146
Releases: 24
From: Суран, Морровинд
On Forums: 14 years 4 months
Thanks: 3299 time(s)
New Zealand


One-man band господина Thorn'а, ранее отвечавший за Arma Christi. Последний проект он почему-то закрыл, но продолжил ту же музыкальную линию в Stigmata Diaboli. Мне очень нравится его подход к музыке, Арму заслушал до дыр, этот, надеюсь, постигнет та же участь.
Спасибо за альбом (IMG:style_emoticons/default/9.gif)



Thanks:
Go to the top of the page
  Insert nick Quick quote
+Quote Post
post Sep 2 2020, 18:50:48
Post #3
BAN
Banned till
Jul 16 2021, 09:09:26



Stigmata Diaboli-2020
(IMG:style_emoticons/default/25.gif)
Стиль: о это ЧТО ТО с ЧЕМ-То Metal
АвЭ (IMG:style_emoticons/default/25.gif)
Хейл...
(IMG:style_emoticons/default/true_black.gif)
Go to the top of the page
  Insert nick Quick quote
+Quote Post

Reply to this topicStart new topic
1 User(s) are reading this topic (1 Guests and 0 Anonymous Users)
0 Members:

 



- Lo-Fi Version Support form
Copyrights and abuse reports form
Time is now: 24th July 2021 - 09:13:46