Welcome Guest ( Log In | Register )

> Seiðr - I Galskabens Mørke (2019), Raw Atmospheric Black Metal
post Sep 5 2020, 08:00:53
Post #1

Правь статус, ####!111
**************
Group: Металариец
Posts: 5,168
Releases: 1566
From: Brazil
On Forums: 12 years 1 month
Thanks: 63692 time(s)
Brazil


(IMG:https://metalarea.org/images/audiocovers/2020_Sep/acov_tid341313_thumb.jpg)

*Artist: Seiðr
*Album: I Galskabens Mørke
*Year: 2019
*Genre: Raw Atmospheric Black Metal
*Country: Denmark (IMG:https://metalarea.org/forum/style_images/flags/Denmark.png)
*Format: mp3@CBR320kbps
*Size: 95MB

Tracklist:
1. Livsviljens knuste bjerge
2. Den kolde regn
3. Galskab
4. Dødens Forfængelighed
5. Brændte vange
6. Kvalt i knugende stilhed
7. I Mosens Mørke
8. Frygtens greb
9. Kampblot
******************************
Total playing time: 40:35

Extended info
Tour de Garde


Out of the deep abyss surrounding Øresund, Seiðr emerge with a new opus of raw, yet atmospheric, black metal somewhere in between Paysage d'hiver and Ildjarn. With a length of nearly 40 minutes, "I Galskabens Mørke" offers bleak, frostlike ambience which is the perfect soundtrack to the harshest winter days.


Technical info
(IMG:https://metalarea.org/images/spectrogram/2020_Sep/e7009039c502baff85875d56a6aaaef4.png)
Input File: 9. Kampblot.mp3
Channels : 2
Sample Rate : 44100
Precision : 16-bit
Duration : 00:02:22.06 = 6264890 samples = 10654.6 CDDA sectors
File Size : 5.88M
Bit Rate : 331k
Sample Encoding: MPEG audio (layer I, II or III)
Comments :
Title=Kampblot
Artist=Seiðr
Album=I galskabens mørke
Tracknumber=9
Year=2019



Register


Go to the top of the page
  Insert nick Quick quote
+Quote Post
 
Start new topic
Replies (1 - 1)
post Sep 5 2020, 19:00:05
Post #2

Маньяк
**********
Group: Металариец
Posts: 1,121
Releases: 4
From: Харьков
On Forums: 15 years 6 months
Thanks: 416 time(s)
Ukraine




Go to the top of the page
  Insert nick Quick quote
+Quote Post

Reply to this topicStart new topic
2 User(s) are reading this topic (2 Guests and 0 Anonymous Users)
0 Members:

 



- Lo-Fi Version Support form
Copyrights and abuse reports form
Time is now: 3rd March 2024 - 07:56:49