Welcome Guest ( Log In | Register )

> Novae Militiae - Topheth (2020), Black Metal
post Sep 8 2020, 23:50:04
Post #1

Правь статус, ####!111
**************
Group: Металариец
Posts: 26,697
Releases: 19243
From: Г.Харьков
On Forums: 9 years 2 months
Thanks: 385141 time(s)
Unknown


(IMG:http://metalarea.org/images/audiocovers/2020_Sep/acov_tid341441_thumb.jpg)

*Artist: Novae Militiae
*Album: Topheth
*Year: 2020
*Genre: Black Metal
*Country: France (IMG:http://metalarea.org/forum/style_images/flags/France.png)
*Format: mp3@CBR320kbps
*Size: 122MB

Tracklist:
1. Towards the Sitra Achra 08:08
2. Advent of the Prophet 07:22
3. Faithfully Reduced to Ashes 05:29
4. The Call of Aeshma 04:42
5. Elevated to Him 09:04
6. Affliction of the Divine 07:22
7. The Table of Revelations 05:52
8. A.R.F.A 05:34
******************************
Total playing time: 53:33




Technical info
(IMG:http://metalarea.org/images/spectrogram/2020_Sep/8ed07a25101364a8e76d9653e49cdfb5.png)
Input File: 02 - Advent of the Prophet.mp3
Channels : 2
Sample Rate : 44100
Precision : 16-bit
Duration : 00:07:23.22 = 19546046 samples = 33241.6 CDDA sectors
File Size : 17.8M
Bit Rate : 321k
Sample Encoding: MPEG audio (layer I, II or III)
Comments :
Title=Advent of the Prophet
Artist=Novae Militiae
Album=Topheth
Tracknumber=2
Year=2020



Register


Go to the top of the page
  Insert nick Quick quote
+Quote Post
 
Start new topic
Replies (1 - 9)
post Sep 9 2020, 07:22:23
Post #2

Восемь Литров
********
Group: Металариец
Posts: 848
Releases: 0
On Forums: 13 years 9 months
Thanks: 383 time(s)
Poland


отличный релиз. в 20-ом на удивление много хорошего материала вышло


Thanks:
(1) Occultas,
Go to the top of the page
  Insert nick Quick quote
+Quote Post
post Sep 9 2020, 18:43:45
Post #3

Девять Литров
*********
Group: Металариец
Posts: 914
Releases: 0
On Forums: 7 years 11 months
Thanks: 699 time(s)
Australia


Excellent.


Go to the top of the page
  Insert nick Quick quote
+Quote Post
post Sep 13 2020, 15:57:00
Post #4

melofags sniper
**************
Group: Металариец
Posts: 6,288
Releases: 0
On Forums: 13 years 4 months
Thanks: 6942 time(s)
Unknown


(IMG:style_emoticons/default/9.gif)



Thanks:
Go to the top of the page
  Insert nick Quick quote
+Quote Post
post Sep 16 2020, 14:57:15
Post #5

While Waiting the Worms
**********
Group: Металариец
Posts: 1,336
Releases: 0
On Forums: 7 years 7 months
Thanks: 2024 time(s)
Unknown


Монументальный и безжалостный стафф.
Ужасающее профанов Пламя последней Инициации.
Go to the top of the page
  Insert nick Quick quote
+Quote Post
post Sep 16 2020, 18:10:14
Post #6

melofags sniper
**************
Group: Металариец
Posts: 6,288
Releases: 0
On Forums: 13 years 4 months
Thanks: 6942 time(s)
Unknown


I confirm that this album is excellent. A dark and punishing release as only French are able to craft.
Devastating release recommended this year.


Thanks:
(1) biroutios,
Go to the top of the page
  Insert nick Quick quote
+Quote Post
post Sep 18 2020, 12:07:32
Post #7

Group: Подсевший
Posts: 20
Releases: 0
On Forums: 1 year 5 months
Thanks: 13 time(s)
Czech Republic


FLAC

CODE
http://www.mediafire.com/file/1wtv3rupasppekp/Novae+Militiae+-+Topheth+(FLAC,+2020).zip/file


Go to the top of the page
  Insert nick Quick quote
+Quote Post
post Sep 20 2020, 20:07:39
Post #8

Absorbence
***********
Group: Металариец
Posts: 1,791
Releases: 216
From: Vastland Abyss of Cthulhu
On Forums: 14 years 8 months
Thanks: 3936 time(s)
Canada


excellent, indeed (IMG:style_emoticons/default/true_black.gif)
interesting, there is something that sounds familiar to some of the work that Roman Saenko did in Hate Forest/Precambrian
Go to the top of the page
  Insert nick Quick quote
+Quote Post
post Sep 28 2020, 06:27:39
Post #9

Grind the Human Scum
**********
Group: Металариец
Posts: 1,056
Releases: 18
On Forums: 14 years 6 months
Thanks: 1066 time(s)
Russian Federation


ЦИТАТА(ondrazevsi @ Sep 18 2020, 14:07:32) *
FLAC

CODE
http://www.mediafire.com/file/1wtv3rupasppekp/Novae+Militiae+-+Topheth+(FLAC,+2020).zip/file


Благослови Тебя Господь! (IMG:style_emoticons/default/true_black.gif)
Go to the top of the page
  Insert nick Quick quote
+Quote Post
post Jul 26 2021, 12:35:09
Post #10

Правь статус, ####!111
**************
Group: Металариец
Posts: 4,400
Releases: 17
From: Holland
On Forums: 15 years 3 weeks
Thanks: 1444 time(s)
Netherlands


Очень атмосферно, потрясный звук, но как-то уж очень однообразно, затянуто, увы. На Hate Forest кстати действительно весьма похоже.
Go to the top of the page
  Insert nick Quick quote
+Quote Post

Reply to this topicStart new topic
1 User(s) are reading this topic (1 Guests and 0 Anonymous Users)
0 Members:

 



- Lo-Fi Version Support form
Copyrights and abuse reports form
Time is now: 29th July 2021 - 01:34:03