Welcome Guest ( Log In | Register )

> Jupiterian - Protosapien (2020), Atmospheric Doom/Death Metal/Sludge
post Sep 9 2020, 17:55:04
Post #1

Правь статус, ####!111
**************
Group: Металариец
Posts: 26,375
Releases: 18969
From: Г.Харьков
On Forums: 9 years 1 month
Thanks: 378711 time(s)
Unknown


(IMG:http://metalarea.org/images/audiocovers/2020_Sep/acov_tid341455_thumb.jpg)

*Artist: Jupiterian
*Album: Protosapien
*Year: 2020
*Genre: Atmospheric Doom/Death Metal/Sludge
*Country: Brazil (IMG:http://metalarea.org/forum/style_images/flags/Brazil.png)
*Format: mp3@CBR320kbps
*Size: 83MB

Tracklist:
1. Homecoming 02:09 instrumental
2. Mere Humans 05:38
3. Voidborn 06:53
4. Capricorn 07:06
5. Starless 07:13
6. Earthling Bloodline 06:40
******************************
Total playing time: 35:39




Extended info
R Bass
A Guitars
V Vocals, Guitars, Synthesizers
G Drums


Technical info
(IMG:http://metalarea.org/images/spectrogram/2020_Sep/c1cbaf9f0aedf4741ea0f4b98aab8982.png)
Input File: 03 Voidborn.mp3
Channels : 2
Sample Rate : 44100
Precision : 16-bit
Duration : 00:06:53.52 = 18236012 samples = 31013.6 CDDA sectors
File Size : 17.1M
Bit Rate : 331k
Sample Encoding: MPEG audio (layer I, II or III)
Comments :
Title=Voidborn
Artist=Jupiterian
Album=Protosapien
Tracknumber=3
Year=2020



Register

Register


Go to the top of the page
  Insert nick Quick quote
+Quote Post
 
Start new topic
Replies (1 - 1)
post Sep 10 2020, 02:26:37
Post #2

\m/
Group Icon
Group: S-moderation team
Posts: 7,932
Releases: 19
From: Петропавловск-Камчатский
On Forums: 12 years 1 week
Thanks: 7985 time(s)
Russian Federation


Added links by mirotvorets


Go to the top of the page
  Insert nick Quick quote
+Quote Post

Reply to this topicStart new topic
2 User(s) are reading this topic (2 Guests and 0 Anonymous Users)
0 Members:

 



- Lo-Fi Version Support form
Copyrights and abuse reports form
Time is now: 25th June 2021 - 11:50:40