Welcome Guest ( Log In | Register )

> Forum rules / Правила раздела

Here go releases which can't go to New releases forums due lack of information, stolen links or incorrect data and just founded in other sites links with minimum info. Reissue of this releases through Add release form with added/corrected data, info and own links highly welcomed.

Сюда уходят релизы, не пропущенные в основные релизные форумы по причинам отсутствия, недостаточности или неверности/некорректности сопровождающей информации, содержащие ссылки, указывающие на файлы, залитые не автором темы, а так же просто найденные где-то ссылки с минимумом информации. Переоформление тем отсюда через форму Добавления релиза с перезаливкой ссылок крайне приветствуется.

> Baerus - Baerus (2020), Blackened Sludge, Doom Metal
post Sep 10 2020, 07:44:00
Post #1

Литр
*
Group: Подсевший
Posts: 71
Releases: 4
On Forums: 1 year 6 months
Thanks: 97 time(s)
Unknown


(IMG:https://metalarea.org/images/audiocovers/nocover.gif)

*Artist: Baerus
*Album: Baerus
*Year: 2020
*Genre: Blackened Sludge, Doom Metal
*Country: Germany (IMG:https://metalarea.org/forum/style_images/flags/Germany.png)
*Format: mp3@CBR320kbps
*Size: 103MB

Tracklist:
01. Cephalopode Invasion (11:13)
02. Liberated (03:27)
03. Greater Good (07:29)
04. Act of Sadism (07:18)
05. Denial (13:09)
******************************
Total playing time: 42:36



Technical info
(IMG:https://metalarea.org/images/spectrogram/2020_Sep/5cd023e6ef53f90745acbb2903a6a5df.png)
Input File: 02. Liberated.mp3
Channels : 2
Sample Rate : 44100
Precision : 16-bit
Duration : 00:03:27.37 = 9145061 samples = 15552.8 CDDA sectors
File Size : 8.30M
Bit Rate : 320k
Sample Encoding: MPEG audio (layer I, II or III)
Comments :
Title=Liberated
Artist=Baerus
Album=Baerus
Tracknumber=2
Year=2020



Register


Thanks:
Go to the top of the page
  Insert nick Quick quote
+Quote Post
 
Start new topic
Replies (1 - 1)
post Jul 6 2021, 18:49:26
Post #2

Литр
*
Group: Подсевший
Posts: 71
Releases: 4
On Forums: 1 year 6 months
Thanks: 97 time(s)
Unknown


320
Register


Thanks:
(1) Wail,
Go to the top of the page
  Insert nick Quick quote
+Quote Post

Reply to this topicStart new topic
1 User(s) are reading this topic (1 Guests and 0 Anonymous Users)
0 Members:

 



- Lo-Fi Version Support form
Copyrights and abuse reports form
Time is now: 25th October 2021 - 20:06:02