Welcome Guest ( Log In | Register )

> Leegte - Abandon [ep] (2019), Atmospheric Black Metal
post Sep 13 2020, 02:03:29
Post #1

Пять Литров
*****
Group: Металариец
Posts: 431
Releases: 73
From: italy
On Forums: 12 years 11 months
Thanks: 1640 time(s)
Italy


(IMG:https://metalarea.org/images/audiocovers/2020_Sep/acov_tid341574_thumb.jpg)

*Artist: Leegte
*Album: Abandon [ep]
*Year: 2019
*Genre: Atmospheric Black Metal
*Country: Belgium (IMG:https://metalarea.org/forum/style_images/flags/Belgium.png)
*Format: mp3@VBR275kbps
*Size: 50MB

Tracklist:
1. Forsaken To The Ire 07:22
2. Woe Unto Him 07:48
3. Deny Me Your Tears 09:41
******************************
Total playing time: 24:51



Technical info
(IMG:https://metalarea.org/images/spectrogram/2020_Sep/8f05493fa92616e3eb63731f8182e062.png)
Input File: Leegte - Abandon - 01 I - Forsaken To The Ire.mp3
Channels : 2
Sample Rate : 44100
Precision : 16-bit
Duration : 00:07:22.33 = 19506797 samples = 33174.8 CDDA sectors
File Size : 15.4M
Bit Rate : 279k
Sample Encoding: MPEG audio (layer I, II or III)
Comments :
Title=I - Forsaken To The Ire
Artist=Leegte
Album=Abandon
Tracknumber=1
Year=2019
Genre=Atmospheric Black Metal



Register


Go to the top of the page
  Insert nick Quick quote
+Quote Post
 
Start new topic
Replies (1 - 1)
post Oct 16 2020, 17:50:50
Post #2

добрый мизантроп
**************
Group: Металариец
Posts: 2,237
Releases: 1
From: Минск
On Forums: 10 years 7 months
Thanks: 1041 time(s)
Madagascar


very good
Go to the top of the page
  Insert nick Quick quote
+Quote Post

Reply to this topicStart new topic
2 User(s) are reading this topic (2 Guests and 0 Anonymous Users)
0 Members:

 



- Lo-Fi Version Support form
Copyrights and abuse reports form
Time is now: 20th June 2021 - 23:38:24