Welcome Guest ( Log In | Register )

> И неформату есть предел.

Рэп/хип-хоп/шансон/поп удаляются. Для них есть свои порталы.

 
Reply to this topicStart new topic
> Titan To Tachyons - Cactides (2020), Progressive Metal/Experimental Metal/Jazz/Instrumental
post Sep 15 2020, 05:55:46
Post #1

hard sci-fi rock
**************
Group: Металариец
Posts: 2,494
Releases: 48
From: Purple sea
On Forums: 2 years 8 months
Thanks: 2602 time(s)
Unknown


(IMG:https://metalarea.org/images/audiocovers/2020_Sep/acov_tid341630_thumb.jpg)

*Artist: Titan To Tachyons
*Album: Cactides
*Year: 2020
*Genre: Progressive Metal/Experimental Metal/Jazz/Instrumental
*Country: United States (IMG:https://metalarea.org/forum/style_images/flags/United%20States.png)
*Format: mp3@CBR320kbps
*Size: 95MB

Tracklist:
1.Morphing Machineminds 05:53
2.The Starthinker is Obsolete 08:02
3.Tycho Magnetic 09:31
4.Earth, and Squidless 07:59
5.Everybody's Dead, Dave 09:30
******************************
Total playing time: 40:55


(IMG:https://metalarea.org/images/youtube.png)

Extended info
Sally Gates (ex-Gigan, Orbweaver) – Guitar
Matt Hollenberg (Cleric, John Zorn) – Bass VI
Kenny Grohowski (Imperial Triumphant, Thoren, Pyrrhon, Brand X, etc.) – Drums
+
Trevor Dunn (Mr. Bungle, Fantômas, Tomahawk, etc.) – Bass on “Everybody's Dead, Dave”


Technical info
(IMG:https://metalarea.org/images/spectrogram/2020_Sep/02af94736ee30dd3eeaf1a11c093a7ea.png)
Input File: 02. The Starthinker Is Obsolete.mp3
Channels : 2
Sample Rate : 44100
Precision : 16-bit
Duration : 00:08:02.35 = 21271811 samples = 36176.5 CDDA sectors
File Size : 20.1M
Bit Rate : 333k
Sample Encoding: MPEG audio (layer I, II or III)
Comments :
Title=The Starthinker Is Obsolete
Artist=Titan to Tachyons
Album=Cactides
Tracknumber=2
Year=2020



Register


Go to the top of the page
  Insert nick Quick quote
+Quote Post

Reply to this topicStart new topic
1 User(s) are reading this topic (1 Guests and 0 Anonymous Users)
0 Members:

 



- Lo-Fi Version Support form
Copyrights and abuse reports form
Time is now: 20th September 2020 - 10:53:46