Welcome Guest ( Log In | Register )

> И неформату есть предел.

Рэп/хип-хоп/шансон/поп удаляются. Для них есть свои порталы.

> Electric Moon - Live At Freak Valley Festival 2019 [live] (2020), Psychedelic/Space Rock (D8)
post Sep 20 2020, 20:59:31
Post #1

Правь статус, ####!111
**************
Group: Металариец
Posts: 49,279
Releases: 876
On Forums: 12 years 4 months
Thanks: 44881 time(s)
Russian Federation


(IMG:http://metalarea.org/images/audiocovers/2020_Sep/acov_tid341793_thumb.jpg)

*Artist: Electric Moon
*Album: Live At Freak Valley Festival 2019 [live]
*Year: 2020
*Genre: Psychedelic/Space Rock
*Country: Germany (IMG:http://metalarea.org/forum/style_images/flags/Germany.png)
*Format: mp3@CBR320kbps
*Size: 210MB

Tracklist:
1. Increase 19:26
2. 777 20:31
3. The Picture 18:27
4. D-Tune 07:37
5. Der Mondsenator Auf Dem Weg Zur Erde 03:05
******************************
Total playing time: 1:09:06



Technical info
(IMG:http://metalarea.org/images/spectrogram/2020_Sep/a99ca3c8f75c16b1b5e5310b98af676a.png)
Input File: 01 Increase.mp3
Channels : 2
Sample Rate : 44100
Precision : 16-bit
Duration : 00:19:26.33 = 51435021 samples = 87474.5 CDDA sectors
File Size : 56.0M
Bit Rate : 384k
Sample Encoding: MPEG audio (layer I, II or III)
Comments :
Title=Increase
Artist=Electric Moon
Album=Live at Freak Valley Festival 2019
Tracknumber=1
Year=2020-09-04
Genre=Psychedelic Rock / Heavy Psych
Discnumber=1



Register


Go to the top of the page
  Insert nick Quick quote
+Quote Post
 
Start new topic
Replies (1 - 2)
post Sep 21 2020, 12:21:34
Post #2

Правь статус, ####!111
**************
Group: Металариец
Posts: 49,279
Releases: 876
On Forums: 12 years 4 months
Thanks: 44881 time(s)
Russian Federation


Этакая сборная солянка получилась в этот раз. Первые два трэка - новые, ранее нигде не светившиеся (и очень хорошие, надо сказать, выдержанные в характерном для группы стиле). Далее следуют уже известные по ранним записям трэки. И бонус - акустическая композиция с другой сессии.

Ждём полноформат, состоящий из новых трэков.
Go to the top of the page
  Insert nick Quick quote
+Quote Post
post May 23 2021, 06:41:41
Post #3

Правь статус, ####!111
**************
Group: Металариец
Posts: 3,533
Releases: 0
From: UK
On Forums: 5 years 3 months
Thanks: 571 time(s)
United Kingdom


Register
Go to the top of the page
  Insert nick Quick quote
+Quote Post

Reply to this topicStart new topic
1 User(s) are reading this topic (1 Guests and 0 Anonymous Users)
0 Members:

 



- Lo-Fi Version Support form
Copyrights and abuse reports form
Time is now: 23rd October 2021 - 21:19:28