Welcome Guest ( Log In | Register )

> Dark Horde - Ascension Of The Inner Flame (2015), Black Metal
post Sep 21 2020, 16:36:46
Post #1

Правь статус, ####!111
**************
Group: Металариец
Posts: 2,280
Releases: 1833
From: Praha
On Forums: 7 years 2 months
Thanks: 48502 time(s)
Czech Republic


(IMG:http://metalarea.org/images/audiocovers/2020_Sep/acov_tid341817_thumb.jpg)

*Artist: Dark Horde
*Album: Ascension Of The Inner Flame
*Year: 2015
*Genre: Black Metal
*Country: Chile (IMG:http://metalarea.org/forum/style_images/flags/Chile.png)
*Format: mp3@CBR320kbps
*Size: 84MB

Tracklist:
1. Intro - More Tantrums
2. Crown of Fire
3. Death & Desolation
4. Oceans of Dreams
5. Fin
6. Rituel
7. Lament of Flesh
8. The Ascension of the Inner Flame
9. Outro - The Funeral
******************************
Total playing time: 34:24



Extended info
lossy mastered


Technical info
(IMG:http://metalarea.org/images/spectrogram/2020_Sep/6e15691955533e763039f096b97ac285.png)
Input File: 02. Crown of Fire.mp3
Channels : 2
Sample Rate : 44100
Precision : 16-bit
Duration : 00:04:06.25 = 10859493 samples = 18468.5 CDDA sectors
File Size : 10.3M
Bit Rate : 334k
Sample Encoding: MPEG audio (layer I, II or III)
Comments :
Title=Crown of Fire
Artist=Dark Horde
Album=Ascension of the Inner Flame
Tracknumber=02/09
Year=2015
Genre=Black Metal



Register


Go to the top of the page
  Insert nick Quick quote
+Quote Post
 
Start new topic
Replies (1 - 1)
post Sep 22 2020, 01:44:48
Post #2

\m/
Group Icon
Group: S-moderation team
Posts: 7,932
Releases: 19
From: Петропавловск-Камчатский
On Forums: 12 years 1 week
Thanks: 7984 time(s)
Russian Federation


(IMG:style_emoticons/default/15.gif) вот оно чё


Go to the top of the page
  Insert nick Quick quote
+Quote Post

Reply to this topicStart new topic
2 User(s) are reading this topic (2 Guests and 0 Anonymous Users)
0 Members:

 



- Lo-Fi Version Support form
Copyrights and abuse reports form
Time is now: 25th June 2021 - 10:13:40