Welcome Guest ( Log In | Register )

> И неформату есть предел.

Рэп/хип-хоп/шансон/поп удаляются. Для них есть свои порталы.

 
Reply to this topicStart new topic
> Ele Ypsis - Meiosis (2017), Modern Classical/Trip Hop/Breakcore
post Sep 22 2020, 06:32:54
Post #1

hard sci-fi rock
**************
Group: Металариец
Posts: 2,634
Releases: 53
From: Purple sea
On Forums: 2 years 10 months
Thanks: 2845 time(s)
Russian Federation


(IMG:https://metalarea.org/images/audiocovers/2020_Sep/acov_tid341829_thumb.jpg)

*Artist: Ele Ypsis
*Album: Meiosis
*Year: 2017
*Genre: Modern Classical/Trip Hop/Breakcore
*Country: Belgium (IMG:https://metalarea.org/forum/style_images/flags/Belgium.png)
*Format: mp3@CBR320kbps
*Size: 108MB

Tracklist:
1. Anaphase 10:16
2. Pachytene 04:59
3. Prophase 04:51
4. Zygotene 05:36
5. Meiosis 06:43
6. Diakinesis 04:39
7. Diplotene 06:27
8. Telophase 03:40
******************************
Total playing time: 47:11

(IMG:https://metalarea.org/images/youtube.png)

Extended info
Laure Le Prunenec (Öxxö Xööx, Corpo-Mente, Igorrr, Rïcïnn) (vocals), Stélian Derenne (The8thStep) (composer, producer)


Technical info
(IMG:https://metalarea.org/images/spectrogram/2020_Sep/72f31c6a989f909644797b84cf676fc1.png)
Input File: 02. Pachytene.mp3
Channels : 2
Sample Rate : 44100
Precision : 16-bit
Duration : 00:05:00.09 = 13233881 samples = 22506.6 CDDA sectors
File Size : 12.6M
Bit Rate : 336k
Sample Encoding: MPEG audio (layer I, II or III)
Comments :
Title=Pachytene
Artist=Ele Ypsis
Album=Meiosis
Tracknumber=2
Year=2017
Genre=Electronic, Modern Classical



Register


Go to the top of the page
  Insert nick Quick quote
+Quote Post

Reply to this topicStart new topic
1 User(s) are reading this topic (1 Guests and 0 Anonymous Users)
0 Members:

 



- Lo-Fi Version Support form
Copyrights and abuse reports form
Time is now: 27th November 2020 - 18:02:29