Welcome Guest ( Log In | Register )

> И неформату есть предел.

Рэп/хип-хоп/шансон/поп удаляются. Для них есть свои порталы.

> Голос Омерики - Чехословакия (2020), Ska, Punk (D4)
post Sep 22 2020, 12:59:42
Post #1

ME[ta]LLOMAN
**************
Group: Металариец
Posts: 5,009
Releases: 3
From: Avdeyevka
On Forums: 15 years 3 months
Thanks: 2060 time(s)
Honduras


(IMG:https://metalarea.org/images/audiocovers/2020_Sep/acov_tid341835_thumb.jpg)

*Artist: Голос Омерики
*Album: Чехословакия
*Year: 2020
*Genre: Ska, Punk
*Country: Russian Federation (IMG:https://metalarea.org/forum/style_images/flags/Russian%20Federation.png)
*Format: mp3@CBR320kbps
*Size: 129MB

Tracklist:
01.Как ох@нно нигде не работать 3:57
02.Министр культуры 3:38
03.Чёрный плащ 2:49
04.Мизантроп 3:29
05.Русская трэшня 3:32
06.Звук – говно, пиво дорогое! 3:39
07.Тёплая китайская куртка 3:18
08.Спецотряд ЧУМА 3:58
09.Знаем, плавали! 3:25
10Овердох@ища 3:54
11.ВММХЗК 3:50
12.Поле чудес 4:11
13.Чехословакия 4:09
14.Родина 4:30
15.Чёрный плащ Кабаре–версия 3:46
******************************
Total playing time: 56:05

Preview 1
Preview 2
Preview 3

Extended info
About
"Golos Omeriki" was founded in 2004 in Moscow. Alco - chanson - cabaret - punk!
(IMG:https://sun1.48276.userapi.com/hAxbFeSGzlkfLpSolrCd-20fzspsoiAx6yb37Q/iBODPSxOQ_g.jpg)


Technical info
(IMG:https://metalarea.org/images/spectrogram/2020_Sep/657fd07ccd204a519ba95f20c1486c6d.png)
Input File: 02. Министр культуры.mp3
Channels : 2
Sample Rate : 44100
Precision : 16-bit
Duration : 00:03:38.15 = 9620415 samples = 16361.2 CDDA sectors
File Size : 8.79M
Bit Rate : 322k
Sample Encoding: MPEG audio (layer I, II or III)
Comments :
Title=Министр культуры
Artist=Голос Омерики
Album=Чехословакия
Tracknumber=2/15
Year=2020
Genre=121
Discnumber=1/1



Register


Go to the top of the page
  Insert nick Quick quote
+Quote Post
 
Start new topic
Replies (1 - 6)
post Oct 6 2020, 09:21:12
Post #2

0%Tolerance
**********
Group: Металариец
Posts: 1,156
Releases: 0
On Forums: 8 years 10 months
Thanks: 207 time(s)
Unknown


Послушать под пивас и мумию рыбы - поржать --- нормально катит такая г0вно-шнуровская калька.
Go to the top of the page
  Insert nick Quick quote
+Quote Post
post Oct 6 2020, 09:58:08
Post #3

∃!
***********
Group: Металариец
Posts: 1,723
Releases: 0
From: Харкiв
On Forums: 10 years 6 months
Thanks: 2109 time(s)
Ukraine


ЦИТАТА(Vitald @ Oct 6 2020, 11:21:12) *
г0вно-шнуровская калька.

Да не. Тут скорее калька на другую команду, название которой я запамятовал. Они еще пели : "девчонки полюбили не меня, девчонки полюбили говнаря", ну или как-то так.


Thanks:
(1) Vitald,
Go to the top of the page
  Insert nick Quick quote
+Quote Post
post Oct 6 2020, 10:25:14
Post #4

Пять Литров
*****
Group: Металариец
Posts: 447
Releases: 0
From: Vilnius
On Forums: 14 years 5 months
Thanks: 153 time(s)
Lithuania


Отличная банда,-спасибо большое!
Go to the top of the page
  Insert nick Quick quote
+Quote Post
post Oct 6 2020, 10:33:05
Post #5

0%Tolerance
**********
Group: Металариец
Posts: 1,156
Releases: 0
On Forums: 8 years 10 months
Thanks: 207 time(s)
Unknown


ЦИТАТА(Baudolino @ Oct 6 2020, 09:58:08) *
Да не. Тут скорее калька на другую команду, название которой я запамятовал. Они еще пели : "девчонки полюбили не меня, девчонки полюбили говнаря", ну или как-то так.

Быть может... не принципиально.
Я не силён в пУнке, потому как не ф0нат ни разу. Послушал из-за названия группца и поржал с содержимого. Одноразово в моём случае.
Вторая телега про министра культуры женского рода ржачная получилась, беспесты фнатуре.



Thanks:
(1) Baudolino,
Go to the top of the page
  Insert nick Quick quote
+Quote Post
post Apr 16 2021, 17:53:45
Post #6

HV/DC
*******
Group: Металариец
Posts: 727
Releases: 0
From: Erlangen, Bayern
On Forums: 14 years 5 months
Thanks: 165 time(s)
Germany


Сегодня вышел новый EP - Уздечка, мож есть у кого?

Эй красота, вынь 3алупу изо рта! (IMG:style_emoticons/default/1488.gif)
Go to the top of the page
  Insert nick Quick quote
+Quote Post
post Apr 16 2021, 21:03:21
Post #7

Пять Литров
*****
Group: Металариец
Posts: 447
Releases: 0
From: Vilnius
On Forums: 14 years 5 months
Thanks: 153 time(s)
Lithuania


ЦИТАТА(zyklon @ Apr 16 2021, 19:53:45) *
Сегодня вышел новый EP - Уздечка, мож есть у кого?

Эй красота, вынь 3алупу изо рта! (IMG:style_emoticons/default/1488.gif)

из сети
https://cloud.mail.ru/public/5ctJ/fjjyaWAbM


Thanks:
(1) zyklon,
Go to the top of the page
  Insert nick Quick quote
+Quote Post

Reply to this topicStart new topic
2 User(s) are reading this topic (2 Guests and 0 Anonymous Users)
0 Members:

 



- Lo-Fi Version Support form
Copyrights and abuse reports form
Time is now: 29th July 2021 - 01:33:21