Welcome Guest ( Log In | Register )

> Demonochtets - Demo I [demo] (2020), Dungeon Synth/Raw Black Metal
post Sep 26 2020, 12:00:22
Post #1

Group: Дух
Posts: 2
Releases: 2
On Forums: 1 year 10 months
Thanks: 20 time(s)
Unknown


(IMG:https://metalarea.org/images/audiocovers/2020_Sep/acov_tid341961_thumb.jpg)

*Artist: Demonochtets
*Album: Demo I [demo]
*Year: 2020
*Genre: Dungeon Synth/Raw Black Metal
*Country: Moldova (IMG:https://metalarea.org/forum/style_images/flags/Moldova.png)
*Format: mp3@CBR320kbps
*Size: 18MB

Tracklist:
01 Untitled I
02 Untitled II
03 葬式 (Manierisme cover)
04 Requiem (Alwaar cover)
******************************
Total playing time: 7:33

Technical info
(IMG:https://metalarea.org/images/spectrogram/2020_Sep/81b9e6b41db90a75c8bc30cc5bbd7f25.png)
Input File: Demonochtets - Demo I - 01 Untitled I.mp3
Channels : 2
Sample Rate : 44100
Precision : 16-bit
Duration : 00:02:36.93 = 6920437 samples = 11769.5 CDDA sectors
File Size : 6.46M
Bit Rate : 330k
Sample Encoding: MPEG audio (layer I, II or III)
Comments :
Title=Untitled I
Artist=Demonochtets
Album=Demo I
Tracknumber=1
Year=2020



Register


Go to the top of the page
  Insert nick Quick quote
+Quote Post
 
Start new topic
Replies (1 - 1)
post Sep 26 2020, 19:05:49
Post #2

Пять Литров
*****
Group: Металариец
Posts: 479
Releases: 0
From: Мурманск
On Forums: 12 years 3 months
Thanks: 643 time(s)
Russian Federation




Thanks:
Go to the top of the page
  Insert nick Quick quote
+Quote Post

Reply to this topicStart new topic
2 User(s) are reading this topic (2 Guests and 0 Anonymous Users)
0 Members:

 



- Lo-Fi Version Support form
Copyrights and abuse reports form
Time is now: 11th August 2022 - 00:48:49