Welcome Guest ( Log In | Register )

> Briqueville - Quelle (2020), Post-Metal/Rock
post Oct 2 2020, 17:08:34
Post #1

Правь статус, ####!111
**************
Group: Металариец
Posts: 4,283
Releases: 3930
From: Одесса
On Forums: 13 years 3 months
Thanks: 43329 time(s)
Ukraine


(IMG:http://metalarea.org/images/audiocovers/2020_Oct/acov_tid342182_thumb.jpg)

*Artist: Briqueville
*Album: Quelle
*Year: 2020
*Genre: Post-Metal/Rock
*Country: Belgium (IMG:http://metalarea.org/forum/style_images/flags/Belgium.png)
*Format: mp3@CBR320kbps
*Size: 136MB

Tracklist:
1. Akte VIII
2. Akte IX
3. Akte X
4. Akte XI
5. Akte XII
6. Akte XIII
7. Akte XIV
8. Akte XV
******************************
Total playing time: 59:11



Extended info


Technical info
(IMG:http://metalarea.org/images/spectrogram/2020_Oct/8c45a9128a371fcb919f7d32c7751796.png)
Input File: 02. Akte IX.mp3
Channels : 2
Sample Rate : 44100
Precision : 16-bit
Duration : 00:05:34.70 = 14760358 samples = 25102.6 CDDA sectors
File Size : 13.4M
Bit Rate : 321k
Sample Encoding: MPEG audio (layer I, II or III)
Comments :
Title=Akte IX
Artist=Briqueville
Album=Quelle
Tracknumber=2
Year=2020
Genre=Post-Metal/Rock
Discnumber=1



Register


Go to the top of the page
  Insert nick Quick quote
+Quote Post
 
Start new topic
Replies (1 - 2)
post Oct 3 2020, 04:35:03
Post #2

melofags sniper
**************
Group: Металариец
Posts: 6,342
Releases: 0
On Forums: 13 years 6 months
Thanks: 7116 time(s)
Unknown


unformat R
Go to the top of the page
  Insert nick Quick quote
+Quote Post
post Oct 3 2020, 20:28:37
Post #3

Восемь Литров
********
Group: Металариец
Posts: 858
Releases: 0
On Forums: 13 years 11 months
Thanks: 385 time(s)
Poland


отличный материал. недавно искал предыдущие работы. может кто поделиться?


Thanks:
Go to the top of the page
  Insert nick Quick quote
+Quote Post

Reply to this topicStart new topic
2 User(s) are reading this topic (2 Guests and 0 Anonymous Users)
0 Members:

 



- Lo-Fi Version Support form
Copyrights and abuse reports form
Time is now: 25th September 2021 - 01:59:59