Welcome Guest ( Log In | Register )

> Violent Attack - Violent Attack Live [live] (2006), Thrash Metal (D)
post Oct 7 2020, 21:36:06
Post #1

Мегаманьяк
***********
Group: Металариец
Posts: 1,952
Releases: 421
On Forums: 5 years 1 month
Thanks: 6034 time(s)
Canada


(IMG:https://metalarea.org/images/audiocovers/2020_Oct/acov_tid342333_thumb.jpg)

*Artist: Violent Attack
*Album: Violent Attack Live [live]
*Year: 2006
*Genre: Thrash Metal
*Country: Paraguay (IMG:https://metalarea.org/forum/style_images/flags/Paraguay.png)
*Format: mp3@CBR320kbps
*Size: 104MB

Tracklist:
Side A
1. Thrashing with Hate 03:22
2. Destruction and Death 04:17
3. M.A.B. 03:30
4. Nuclear Crossfire 04:42
5. Troops of Doom (Sepultura cover) 03:33
6. Massacra (Hellhammer cover) 02:35
Side B
7. Violent Attack 05:42
8. When the Barbarity Reigned 04:22
9. Brain Dead 04:25
10. They Shall Pay 03:16
11. Dead City (Violent Force cover) 03:58
******************************
Total playing time: 43:42

Extended info
Song 1-5: Live, December 25, 2004
Song 6: Rehearsal 2003 (bonus)
Song 7-11: Live 2002

For fans into rough/dirty thrash metal,
eg. SODOM (In the Sign of Evil, Obsessed by Cruelty), DESTRUCTION (Sentence of Death, Infernal Overkill), KREATOR (Endless Pain), SEPULTURA (Bestial Devastation), etc.

Release date: September 2006
Catalog ID: KV-R 013
Limited edition, Hand-numered, 500 Cassette copies
Label: Kuravilú Productions

tape rip by me

NO audio cleaning used, and tape hiss can be heard.
Don't like that? then fuck off.
Not for wimps

https://www.metal-archives.com/albums/Violent_Attack/Violent_Attack/139719

https://www.discogs.com/Violent-Attack-Live/release/5853574


Technical info
(IMG:https://metalarea.org/images/spectrogram/2020_Oct/2b0c5daacc0ee73a5c54824ea9d25d8a.png)
Input File: 01. Thrashing with Hate.mp3
Channels : 2
Sample Rate : 44100
Precision : 16-bit
Duration : 00:03:22.62 = 8935366 samples = 15196.2 CDDA sectors
File Size : 8.36M
Bit Rate : 330k
Sample Encoding: MPEG audio (layer I, II or III)
Comments :
Title=Thrashing with Hate
Artist=Violent Attack (Paraguay)
Album=Live Album
Tracknumber=1
Year=2006
Genre=Thrash Metal



Register


Go to the top of the page
  Insert nick Quick quote
+Quote Post
 
Start new topic
Replies (1 - 3)
post Dec 20 2020, 14:01:45
Post #2

Forever Underground
**************
Group: Металариец
Posts: 11,949
Releases: 0
On Forums: 8 years 10 months
Thanks: 19213 time(s)
Unknown


QUOTE(canadaspaceman @ Oct 7 2020, 21:36:06) *
For fans into rough/dirty thrash metal...
Not for wimps

(IMG:style_emoticons/default/25.gif) (IMG:style_emoticons/default/9.gif) (IMG:style_emoticons/default/metaler.gif)


Thanks:
(1) Wail,
Go to the top of the page
  Insert nick Quick quote
+Quote Post
post May 27 2022, 17:33:20
Post #3

Шесть Литров
******
Group: Металариец
Posts: 695
Releases: 0
From: curitiba, parana
On Forums: 11 years 4 months
Thanks: 1077 time(s)
Brazil


Register
Go to the top of the page
  Insert nick Quick quote
+Quote Post
post Sep 30 2022, 00:35:14
Post #4

Мегаманьяк
***********
Group: Металариец
Posts: 1,952
Releases: 421
On Forums: 5 years 1 month
Thanks: 6034 time(s)
Canada


QUOTE(asgarddistro @ May 27 2022, 17:33:20) *

Bitrate: WAV files (1411 kbps)
Size: 445 MB
ulozto link
Register


Thanks:
Go to the top of the page
  Insert nick Quick quote
+Quote Post

Reply to this topicStart new topic
1 User(s) are reading this topic (1 Guests and 0 Anonymous Users)
0 Members:

 



- Lo-Fi Version Support form
Copyrights and abuse reports form
Time is now: 3rd March 2024 - 06:06:18