Welcome Guest ( Log In | Register )

> Forum rules / Правила раздела

Here go releases which can't go to New releases forums due lack of information, stolen links or incorrect data and just founded in other sites links with minimum info. Reissue of this releases through Add release form with added/corrected data, info and own links highly welcomed.

Сюда уходят релизы, не пропущенные в основные релизные форумы по причинам отсутствия, недостаточности или неверности/некорректности сопровождающей информации, содержащие ссылки, указывающие на файлы, залитые не автором темы, а так же просто найденные где-то ссылки с минимумом информации. Переоформление тем отсюда через форму Добавления релиза с перезаливкой ссылок крайне приветствуется.

 
Reply to this topicStart new topic
> Hand Of Glory & Enshroud - Hand Of Glory/Enshroud [split] (2020), Raw Black Metal | Raw Black Metal (D4)(D)
post Oct 7 2020, 22:26:29
Post #1

Malum dominus omnium
****
Group: Металариец
Posts: 370
Releases: 279
On Forums: 1 year 5 months
Thanks: 5752 time(s)
Vatican City


(IMG:https://metalarea.org/images/audiocovers/2020_Oct/acov_tid342334_thumb.jpg)

*Artist: Hand Of Glory & Enshroud
*Album: Hand Of Glory/Enshroud [split]
*Year: 2020
*Genre: Raw Black Metal | Raw Black Metal
*Country: United States (IMG:https://metalarea.org/forum/style_images/flags/United%20States.png) | New Zealand (IMG:https://metalarea.org/forum/style_images/flags/New%20Zealand.png)
*Format: mp3@CBR320kbps
*Size: 102MB

Tracklist:
1. Hand of Glory - Caressing The Hideous Face Of Unseen Darkness 05:47
2. Hand of Glory - To Those Restless Spirits Of The Doorless Room 13:25
3. Hand of Glory - Ba'al Pe'or Sempiternal Lord Of The Opening 06:55
4. Enshroud - Fragments Of Bone Cast Towards Lunatic Hymns 05:50
5. Enshroud - Relentlessly Pursued By Those That Seek Nothing But Malice And Spite 05:21
6. Enshroud - To Succumb To The Virulent Gifts Of Impure Souls 03:38
7. Enshroud - Basking In The Hideous Glow Of Funeral Torches 04:04
******************************
Total playing time: 45:00

(IMG:https://metalarea.org/images/youtube.png)
Metal Archives

Technical info
(IMG:https://metalarea.org/images/spectrogram/2020_Oct/8154b7590a412f5c4ff1094d99e449d5.png)
Input File: 1 - Hand of Glory - Caressing The Hideous Face Of Unseen Darkness.mp3
Channels : 2
Sample Rate : 44100
Precision : 16-bit
Duration : 00:05:47.17 = 15310329 samples = 26038 CDDA sectors
File Size : 13.9M
Bit Rate : 320k
Sample Encoding: MPEG audio (layer I, II or III)



Register


Thanks:
Go to the top of the page
  Insert nick Quick quote
+Quote Post

Reply to this topicStart new topic
1 User(s) are reading this topic (1 Guests and 0 Anonymous Users)
0 Members:

 



- Lo-Fi Version Support form
Copyrights and abuse reports form
Time is now: 5th August 2021 - 18:11:11