Welcome Guest ( Log In | Register )

> Gianluca Ferro - Cosmic Dead Ringers (2020), Progressive Metal/Fusion (D4)
post Oct 8 2020, 15:15:12
Post #1

практики шума одухотворяющего
**************
Group: Металариец
Posts: 2,998
Releases: 80
On Forums: 3 years 6 months
Thanks: 3773 time(s)
Russian Federation


(IMG:https://metalarea.org/images/audiocovers/2020_Oct/acov_tid342370_thumb.jpg)

*Artist: Gianluca Ferro
*Album: Cosmic Dead Ringers
*Year: 2020
*Genre: Progressive Metal/Fusion
*Country: Italy (IMG:https://metalarea.org/forum/style_images/flags/Italy.png)
*Format: mp3@CBR320kbps
*Size: 94MB

Tracklist:
01. Diwiwiti 6:06
02. 9-Sided Mirror 3:32
03. Theta Spiral 15:27
04. Gravity 3:08
05. Zombie Diamond Planet 6:29
06. A Storm Coming 4:03
******************************
Total playing time: 38:45

youtube


Extended info
Gianluca Ferro (See also: Strings 24, ex-Arkhè, ex-Heart of Sun, ex-Time Machine, Breath of Nibiru, Lovekillers, S.H.I.N.E., ex-DoomSword, ex-Khali (live) - Guitars, Bass, Programming, Songwriting


Technical info
(IMG:https://metalarea.org/images/spectrogram/2020_Oct/7635a4522bee563cce3eb841c165a01a.png)
Input File: 01. Diwiwiti.mp3
Channels : 2
Sample Rate : 44100
Precision : 16-bit
Duration : 00:06:06.50 = 16162430 samples = 27487.1 CDDA sectors
File Size : 14.8M
Bit Rate : 324k
Sample Encoding: MPEG audio (layer I, II or III)
Comments :
Title=Diwiwiti
Artist=Gianluca Ferro
Album=Cosmic Dead Ringers
Tracknumber=1/6
Year=2020
Genre=Progressive Metal
Discnumber=1/1



Register


Go to the top of the page
  Insert nick Quick quote
+Quote Post
 
Start new topic
Replies (1 - 2)
post Mar 8 2021, 14:16:25
Post #2

Group: Подсевший
Posts: 18
Releases: 0
On Forums: 11 years 3 months
Thanks: 3 time(s)
Russian Federation


Может кто-нибудь перезалить альбом? Заранее спасибо
Go to the top of the page
  Insert nick Quick quote
+Quote Post
post Mar 8 2021, 16:03:25
Post #3

практики шума одухотворяющего
**************
Group: Металариец
Posts: 2,998
Releases: 80
On Forums: 3 years 6 months
Thanks: 3773 time(s)
Russian Federation


MP3 CBR 320 kbps
Register


Thanks:
Go to the top of the page
  Insert nick Quick quote
+Quote Post

Reply to this topicStart new topic
1 User(s) are reading this topic (1 Guests and 0 Anonymous Users)
0 Members:

 



- Lo-Fi Version Support form
Copyrights and abuse reports form
Time is now: 24th July 2021 - 06:46:58