Welcome Guest ( Log In | Register )

> Funeral Candies - Месу Розпочато (2020), Black Metal/Black 'n' Roll
post Oct 11 2020, 14:39:55
Post #1

Правь статус, ####!616
**************
Group: Металариец
Posts: 6,606
Releases: 5077
From: 55°35’N 38°08’E
On Forums: 13 years 2 weeks
Thanks: 93235 time(s)
Unknown


(IMG:https://metalarea.org/images/audiocovers/2020_Oct/acov_tid342476_thumb.jpg)

*Artist: Funeral Candies
*Album: Месу Розпочато
*Year: 2020
*Genre: Black Metal/Black 'n' Roll
*Country: Ukraine (IMG:https://metalarea.org/forum/style_images/flags/Ukraine.png)
*Format: mp3@CBR320kbps
*Size: 67MB

Tracklist:
1.Меса Коло Дуба 03:04
2.Культ Відьомської Ями 03:30
3.Той Дім На Підварках 03:11
4.Катакомби 04:02
5.Буря Над Пслом 05:49
6.Шабаш На Базилевській Горі 02:52
7.Калаварка 00:51
8.Варка 05:12
******************************
Total playing time: 28:31



Technical info
(IMG:https://metalarea.org/images/spectrogram/2020_Oct/62e1a29d51fcf52aedabe6bfed088ff5.png)
Input File: 01 Меса Коло Дуба.mp3
Channels : 2
Sample Rate : 44100
Precision : 16-bit
Duration : 00:03:04.78 = 8148666 samples = 13858.3 CDDA sectors
File Size : 7.48M
Bit Rate : 324k
Sample Encoding: MPEG audio (layer I, II or III)
Comments :
Title=Меса Коло Дуба
Artist=Funeral Candies
Album=Месу Розпочато
Tracknumber=1
Year=2020
Genre=Black Metal



Register


Go to the top of the page
  Insert nick Quick quote
+Quote Post
 
Start new topic
Replies (1 - 8)
post Oct 11 2020, 22:22:41
Post #2

Четыре Литра
****
Group: Металариец
Posts: 376
Releases: 0
From: Kyiv
On Forums: 9 years 3 months
Thanks: 154 time(s)
Ukraine


Неслушабельное повидло какое-то.


Thanks:
Go to the top of the page
  Insert nick Quick quote
+Quote Post
post Oct 12 2020, 00:29:45
Post #3

Четыре Литра
****
Group: Металариец
Posts: 357
Releases: 0
On Forums: 12 years 6 months
Thanks: 281 time(s)
Brazil


ЦИТАТА(smysl @ Oct 11 2020, 16:39:55) *
7.Калаварка 00:51
8.Варка 05:12


(IMG:style_emoticons/default/hmm.gif)
Go to the top of the page
  Insert nick Quick quote
+Quote Post
post Oct 12 2020, 10:24:17
Post #4

0%Tolerance
**********
Group: Металариец
Posts: 1,137
Releases: 0
On Forums: 8 years 10 months
Thanks: 205 time(s)
Unknown


Неколбасящий пластмассовый блэкенролл, которого здесь как такового собственно и нет. Одна дешёвка калаварка и примитив.
Go to the top of the page
  Insert nick Quick quote
+Quote Post
post Oct 23 2020, 08:15:42
Post #5

Маньяк
**********
Group: Металариец
Posts: 1,085
Releases: 0
From: Новосибирск
On Forums: 11 years 10 months
Thanks: 298 time(s)
Russian Federation


ЦИТАТА(Vitald @ Oct 12 2020, 16:24:17) *
Неколбасящий пластмассовый блэкенролл, которого здесь как такового собственно и нет. Одна дешёвка калаварка и примитив.


Ты что, спец по украинской музыке, что ли? (IMG:style_emoticons/default/smile3.gif)
Go to the top of the page
  Insert nick Quick quote
+Quote Post
post Oct 23 2020, 09:47:23
Post #6

The Angel Of Death
**************
Group: Металариец
Posts: 6,147
Releases: 52
From: Луганск, 13 регион, экс-404
On Forums: 15 years 8 months
Thanks: 2170 time(s)
Papua New Guinea


ЦИТАТА(Vitald @ 18th October 2020 - 13:09:45) *
Среднестатистический посредственный укроблэкмитал.

Go to the top of the page
  Insert nick Quick quote
+Quote Post
post Nov 25 2020, 13:20:05
Post #7

добрый мизантроп
**************
Group: Металариец
Posts: 2,277
Releases: 1
From: Минск
On Forums: 10 years 8 months
Thanks: 1056 time(s)
Madagascar


Quality album
About style I'd call it gothic thrash, cuz alot of similiraties in music with several Lake of Tears albums.
Go to the top of the page
  Insert nick Quick quote
+Quote Post
post Nov 25 2020, 14:13:41
Post #8

Правь статус, ####!111
**************
Group: Металариец
Posts: 48,994
Releases: 848
On Forums: 12 years 1 month
Thanks: 43996 time(s)
Russian Federation


ЦИТАТА(smysl @ Oct 11 2020, 17:39:55) *
8.Варка 05:12


(IMG:https://c.radikal.ru/c24/2011/c4/e8198904b5b4.jpg)
Go to the top of the page
  Insert nick Quick quote
+Quote Post
post Nov 25 2020, 16:51:07
Post #9

0%Tolerance
**********
Group: Металариец
Posts: 1,137
Releases: 0
On Forums: 8 years 10 months
Thanks: 205 time(s)
Unknown


ЦИТАТА(SSWolf88 @ Oct 23 2020, 09:15:42) *
Ты что, спец по украинской музыке, что ли? (IMG:style_emoticons/default/smile3.gif)


Уже не спец. Митал сцена тамошняя была на высоте некогда. В последние годы развелось множество группок-однодневок вроде сабжа, которые путаются под ногами и понижают своей недомузыкой общий статус.
Go to the top of the page
  Insert nick Quick quote
+Quote Post

Reply to this topicStart new topic
2 User(s) are reading this topic (2 Guests and 0 Anonymous Users)
0 Members:

 



- Lo-Fi Version Support form
Copyrights and abuse reports form
Time is now: 25th July 2021 - 05:02:09