Welcome Guest ( Log In | Register )

> Ventr - Numinous Negativity [ep] (2020), Black Metal
post Oct 12 2020, 08:48:20
Post #1

Правь статус, ####!111
**************
Group: Металариец
Posts: 4,784
Releases: 1468
From: Brazil
On Forums: 8 years 11 months
Thanks: 53909 time(s)
Brazil


(IMG:http://metalarea.org/images/audiocovers/2020_Oct/acov_tid342512_thumb.jpg)

*Artist: Ventr
*Album: Numinous Negativity [ep]
*Year: 2020
*Genre: Black Metal
*Country: Portugal (IMG:http://metalarea.org/forum/style_images/flags/Portugal.png)
*Format: mp3@CBR320kbps
*Size: 58MB

Tracklist:
1. Omniprsent Abominations 07:26
2. Our Altar of Murderous Fanaticism 07:44
3. Numinous Negativity 02:18
4. A Dagger to Worship 07:25
******************************
Total playing time: 24:53



Extended info
Signal Rex


Technical info
(IMG:http://metalarea.org/images/spectrogram/2020_Oct/0bfde57c61e03ac7f20363a5d62b4a6e.png)
Input File: 01 Omnipresent abominations.mp3
Channels : 2
Sample Rate : 44100
Precision : 16-bit
Duration : 00:07:26.09 = 19672613 samples = 33456.8 CDDA sectors
File Size : 18.1M
Bit Rate : 324k
Sample Encoding: MPEG audio (layer I, II or III)
Comments :
Title=Omnipresent abominations
Artist=Ventr
Album=Numinous Negativity
Tracknumber=1
Year=2020



Register


Go to the top of the page
  Insert nick Quick quote
+Quote Post
 
Start new topic
Replies (1 - 1)
post Oct 13 2020, 18:00:12
Post #2

Cultist
**************
Group: Металариец
Posts: 4,332
Releases: 1333
From: Koenigsberg
On Forums: 14 years 3 weeks
Thanks: 9063 time(s)
Russian Federation


Бодряком, но вокал не очень.
Go to the top of the page
  Insert nick Quick quote
+Quote Post

Reply to this topicStart new topic
1 User(s) are reading this topic (1 Guests and 0 Anonymous Users)
0 Members:

 



- Lo-Fi Version Support form
Copyrights and abuse reports form
Time is now: 18th January 2021 - 11:01:05