Welcome Guest ( Log In | Register )

> Sargatanas - Live 2001 [live] (2001), Black/Death Metal (D)
post Oct 14 2020, 11:06:54
Post #1

Join my religion, or die
**************
Group: Металариец
Posts: 10,987
Releases: 1685
From: Питера
On Forums: 12 years 2 days
Thanks: 22294 time(s)
Russian Federation


(IMG:https://metalarea.org/images/audiocovers/2020_Oct/acov_tid342566_thumb.jpg)

*Artist: Sargatanas
*Album: Live 2001 [live]
*Year: 2001
*Genre: Black/Death Metal
*Country: Mexico (IMG:https://metalarea.org/forum/style_images/flags/Mexico.png)
*Format: mp3@CBR320kbps
*Size: 77MB

Tracklist:
01. Eternal Darkness / Black Magic (Slayer cover) 05:03
02. Hell's Lair 05:02
03. Sargatanas 03:56
04. Ritual of the Advent 03:54
05. The Age of Flames 03:13
06. Re-Animation (Sacrifice cover) 03:54
07. Warlord of Hell 05:29
08. Fear & Suffering 02:51
******************************
Total playing time: 33:22

Preview 1

Extended info
Качество, конечно жесть...


Technical info
(IMG:https://metalarea.org/images/spectrogram/2020_Oct/4df84ccabb5f06e7994ce285e9a0b70c.png)
Input File: 02 Hell\'s Lair.mp3
Channels : 2
Sample Rate : 32000
Precision : 16-bit
Duration : 00:05:02.30 = 9673440 samples ~ 22672.1 CDDA sectors
File Size : 12.2M
Bit Rate : 322k
Sample Encoding: MPEG audio (layer I, II or III)
Comments :
Title=Hell's Lair
Artist=Sargatanas
Album=2001 Live 2001
Tracknumber=02/08
Year=2001
Genre=Black/Death Metal



Register


Go to the top of the page
  Insert nick Quick quote
+Quote Post
 
Start new topic
Replies (1 - 1)
post Sep 15 2021, 04:04:30
Post #2

Три Литра
***
Group: Завсегдатай
Posts: 282
Releases: 0
On Forums: 3 years 1 month
Thanks: 16 time(s)
Brazil


https://disk.yandex.ru/d/N2JZK2G4lIWhnw


Thanks:
Go to the top of the page
  Insert nick Quick quote
+Quote Post

Reply to this topicStart new topic
2 User(s) are reading this topic (2 Guests and 0 Anonymous Users)
0 Members:

 



- Lo-Fi Version Support form
Copyrights and abuse reports form
Time is now: 29th September 2021 - 02:47:49