Welcome Guest ( Log In | Register )

> Wayfarer - A Romance With Violence (2020), Atmospheric Black/Folk Metal (D7)
post Oct 15 2020, 11:34:40
Post #1

Serial Uploader
Group Icon
Group: V.I.P
Posts: 38,070
Releases: 36232
From: Lithuania
On Forums: 13 years 7 months
Thanks: 443494 time(s)
Lithuania


(IMG:http://metalarea.org/images/audiocovers/2020_Oct/acov_tid342588_thumb.jpg)

*Artist: Wayfarer
*Album: A Romance With Violence
*Year: 2020
*Genre: Atmospheric Black/Folk Metal
*Country: United States (IMG:http://metalarea.org/forum/style_images/flags/United%20States.png)
*Format: mp3@CBR320kbps
*Size: 103MB

Tracklist:
01. The Curtain Pulls Back 01:12
02. The Crimson Rider (Gallows Frontier, Act I) 10:40
03. The Iron Horse (Gallows Frontier, Act II) 06:28
04. Fire & Gold 04:19
05. Masquerade of the Gunslingers 10:01
06. Intermission 02:01
07. Vaudeville 10:17
******************************
Total playing time: 44:58


Preview 2


(IMG:http://metalarea.org/images/youtube.png)

Technical info
(IMG:http://metalarea.org/images/spectrogram/2020_Oct/20be491e7e01b993758b19b6fec625e3.png)
Input File: 2. The Crimson Rider (Gallows Frontier, Act I).mp3
Channels : 2
Sample Rate : 44100
Precision : 16-bit
Duration : 00:00:00.64 = 28224 samples = 48 CDDA sectors
File Size : 25.7M
Bit Rate : 321M
Sample Encoding: MPEG audio (layer I, II or III)
Comments :
Title=The Crimson Rider (Gallows Frontier, Act I)
Artist=Wayfarer
Album=A Romance with Violence
Tracknumber=2
Year=2020
Genre=Atmospheric Black Metal
Discnumber=1



Register


Go to the top of the page
  Insert nick Quick quote
+Quote Post
 
Start new topic
Replies (1 - 8)
post Oct 16 2020, 09:24:44
Post #2

0%Tolerance
***********
Group: Металариец
Posts: 1,645
Releases: 0
On Forums: 9 years 4 months
Thanks: 323 time(s)
Unknown


Эти реднеки на прошлых работах были на высоте. Новьё надо забирать.
Go to the top of the page
  Insert nick Quick quote
+Quote Post
post Oct 18 2020, 12:01:26
Post #3

0%Tolerance
***********
Group: Металариец
Posts: 1,645
Releases: 0
On Forums: 9 years 4 months
Thanks: 323 time(s)
Unknown


Стали больше напоминать своего земляка-пиндоса из Паноптикум. В частности - медляками, аккустическими отступлениями и кантри-фольковыми моментами.
Сабж напротив, как водится у большинства работающих под этим тегом, - без истерично-истошных воплей и визгов, скучной и однообразной тягомотины, соплей и слюней... Хороший и достойный образец качественного атмоблэка.
Go to the top of the page
  Insert nick Quick quote
+Quote Post
post Oct 18 2020, 14:10:30
Post #4

Шесть Литров
******
Group: Металариец
Posts: 650
Releases: 0
From: Лыткарино
On Forums: 2 years 8 months
Thanks: 172 time(s)
Russian Federation


Пустой и тягомотный материал, тут не найти ни одной цепляющей мелодии, всё скучно и уныло.
Go to the top of the page
  Insert nick Quick quote
+Quote Post
post Oct 18 2020, 14:55:38
Post #5

0%Tolerance
***********
Group: Металариец
Posts: 1,645
Releases: 0
On Forums: 9 years 4 months
Thanks: 323 time(s)
Unknown


Увы, хЫтовых соляков и слащавых сопелек не завезли.
Go to the top of the page
  Insert nick Quick quote
+Quote Post
post Oct 19 2020, 18:19:26
Post #6

Мегаманьяк
***********
Group: Металариец
Posts: 1,526
Releases: 0
From: Russian Federation - St.Petersburg
On Forums: 12 years 10 months
Thanks: 418 time(s)
Russian Federation


В рамках жанра отличная тема! (IMG:style_emoticons/default/20.gif)


Thanks:
(1) Vitald,
Go to the top of the page
  Insert nick Quick quote
+Quote Post
post Jan 29 2021, 15:23:49
Post #7

Правь статус, ####!111
**************
Group: Металариец
Posts: 4,508
Releases: 18
From: Holland
On Forums: 15 years 6 months
Thanks: 1505 time(s)
Netherlands


После пары кругов не скажу, что зацепило. Хорошая работа, но не мое, ушел слушать Паноптикон.
Go to the top of the page
  Insert nick Quick quote
+Quote Post
post Jan 30 2021, 13:55:27
Post #8

0%Tolerance
***********
Group: Металариец
Posts: 1,645
Releases: 0
On Forums: 9 years 4 months
Thanks: 323 time(s)
Unknown


ЦИТАТА(Metalass @ Jan 29 2021, 16:23:49) *
После пары кругов не скажу, что зацепило. Хорошая работа, но не мое, ушел слушать Паноптикон.

Равные величины.
Go to the top of the page
  Insert nick Quick quote
+Quote Post
post Jun 28 2021, 17:54:34
Post #9

Три Литра
***
Group: Завсегдатай
Posts: 299
Releases: 0
On Forums: 3 years 7 months
Thanks: 120 time(s)
Mexico


320 kbps
Register
https://blogmg23.blogspot.com


Thanks:
Go to the top of the page
  Insert nick Quick quote
+Quote Post

Reply to this topicStart new topic
2 User(s) are reading this topic (2 Guests and 0 Anonymous Users)
0 Members:

 



- Lo-Fi Version Support form
Copyrights and abuse reports form
Time is now: 24th January 2022 - 15:43:10