Welcome Guest ( Log In | Register )

> Enter The Soil - The Still Forest, Bathed In Mist (2020), Doom/Death Metal
post Oct 18 2020, 10:18:06
Post #1

funeral doom fan
Group Icon
Group: S-moderation team
Posts: 4,864
Releases: 2526
From: Ростов-на-Дону
On Forums: 15 years 5 months
Thanks: 48694 time(s)
Russian Federation


(IMG:http://metalarea.org/images/audiocovers/2020_Oct/acov_tid342695_thumb.jpg)

*Artist: Enter The Soil
*Album: The Still Forest, Bathed In Mist
*Year: 2020
*Genre: Doom/Death Metal
*Country: New Zealand (IMG:http://metalarea.org/forum/style_images/flags/New%20Zealand.png)
*Format: mp3@CBR320kbps
*Size: 63MB

Tracklist:
1. Darkness Within Your Reach 07:13
2. Twisting, Turning, Ecstacy 04:00
3. The Voices in the Trees 02:35
4. Fear and Regret 03:52
5. The Wait 02:00
6. The Still Forest 07:46
******************************
Total playing time: 27:26



Extended info
Концептуальный альбом, посвященный лесу.
Несмотря на длительность, позиционируется как полноформат.


Technical info
(IMG:http://metalarea.org/images/spectrogram/2020_Oct/367f03ca2c9a139a3e01047614241c4a.png)
Input File: 02 - Twisting, Turning, Ecstacy.mp3
Channels : 2
Sample Rate : 44100
Precision : 16-bit
Duration : 00:04:00.18 = 10591806 samples = 18013.3 CDDA sectors
File Size : 9.61M
Bit Rate : 320k
Sample Encoding: MPEG audio (layer I, II or III)
Comments :
Title=Twisting, Turning, Ecstacy
Artist=Enter The Soil
Album=The Still Forest, Bathed In Mist
Tracknumber=02
Year=2020



Register


Go to the top of the page
  Insert nick Quick quote
+Quote Post
 
Start new topic
Replies (1 - 7)
post Oct 18 2020, 12:00:37
Post #2

Чёткий пацан из Автово...
Group Icon
Group: V.I.P
Posts: 9,330
Releases: 40
From: Город над вольной Невой...
On Forums: 14 years 11 months
Thanks: 4814 time(s)
Russian Federation


В Новой Зеландии гов*а не делают (IMG:style_emoticons/default/pray.gif)
Как минимум, это касается музыки и винца - да-да, я, конечно же, про мой любимый совиньончик (IMG:style_emoticons/default/1488.gif)
Судя по прослушке, перед нами наиклассический материал, которого часто бывает не хватает. Без лишних примесей, звуков или же настроений. Дум-дэт аз из. Спасибо, Фрост!


Thanks:
Go to the top of the page
  Insert nick Quick quote
+Quote Post
post Oct 18 2020, 16:49:48
Post #3

Три Литра
***
Group: Завсегдатай
Posts: 278
Releases: 0
On Forums: 3 years 4 months
Thanks: 112 time(s)
Belarus


Отличный второй альбом коллектива. Doom Death Metal с оттенками Funeral. Монументально.
Go to the top of the page
  Insert nick Quick quote
+Quote Post
post Oct 19 2020, 15:57:52
Post #4

хаос и порядок
****
Group: Металариец
Posts: 376
Releases: 0
From: Запорожье
On Forums: 11 years 1 month
Thanks: 190 time(s)
Ukraine


Канонично, концептуально, EP на два трэка и много наполнителя посередине, который неверное и заглушает лес.
Go to the top of the page
  Insert nick Quick quote
+Quote Post
post Oct 20 2020, 14:03:16
Post #5

ME[ta]LLOMAN
**************
Group: Металариец
Posts: 5,007
Releases: 3
From: Avdeyevka
On Forums: 15 years 2 months
Thanks: 2054 time(s)
Honduras


трепетные обнимашки.. иссушенными, закоченелыми конечностями на фоне заката с дымкой и циклически-вяло-убывающего лиственного покрова (IMG:style_emoticons/default/headcrab.png)


Thanks:
Go to the top of the page
  Insert nick Quick quote
+Quote Post
post Oct 25 2020, 19:36:27
Post #6

####!111
**************
Group: Металариец
Posts: 4,422
Releases: 133
From: The Mountain Of DOOM
On Forums: 13 years 8 months
Thanks: 6191 time(s)
Russian Federation


Начало - эталонный дум-дет. Но снова вторая половина альбома скучная (IMG:style_emoticons/default/6.gif)
Go to the top of the page
  Insert nick Quick quote
+Quote Post
post Dec 5 2020, 07:51:01
Post #7

Четыре Литра
****
Group: Металариец
Posts: 383
Releases: 5
From: Суворов
On Forums: 3 years 4 months
Thanks: 86 time(s)
Russian Federation


эх, как жаль. Релиз хороший, но песни цепляют только эпизодически
Go to the top of the page
  Insert nick Quick quote
+Quote Post
post Feb 23 2021, 13:17:28
Post #8

Самый Тихий Час
**************
Group: Металариец
Posts: 6,419
Releases: 6
On Forums: 11 years 7 months
Thanks: 3001 time(s)
Unknown


ЦИТАТА(Kitalter @ 5th December 2020 - 09:51:01) *
эх, как жаль. Релиз хороший, но песни цепляют только эпизодически

вот та же фигня.
Солидно.
Но где то не дожали.

Почему то весь релиз я ожидал что польётся такая песня :
но не дождался..
Go to the top of the page
  Insert nick Quick quote
+Quote Post

Reply to this topicStart new topic
2 User(s) are reading this topic (2 Guests and 0 Anonymous Users)
0 Members:

 



- Lo-Fi Version Support form
Copyrights and abuse reports form
Time is now: 18th June 2021 - 13:39:57