Welcome Guest ( Log In | Register )

> Thrashwall - Thrashwall (2020), Old School Thrash Metal
post Oct 19 2020, 14:45:47
Post #1

Правь статус, ####!111
**************
Group: Металариец
Posts: 26,652
Releases: 19211
From: Г.Харьков
On Forums: 9 years 2 months
Thanks: 384063 time(s)
Unknown


(IMG:https://metalarea.org/images/audiocovers/2020_Oct/acov_tid342715_thumb.jpg)

*Artist: Thrashwall
*Album: Thrashwall
*Year: 2020
*Genre: Old School Thrash Metal
*Country: Portugal (IMG:https://metalarea.org/forum/style_images/flags/Portugal.png)
*Format: mp3@CBR320kbps
*Size: 68MB

Tracklist:
1. Intro 00:57
2. War Outside the Wall 03:45
3. Old Jail 03:22
4. Warehouse Rampage 03:57
5. World Domination 05:14
6. Mental Destruction 03:37
7. Insanity Alert 04:12
8. Mosh in the Hall 03:38
******************************
Total playing time: 28:42




Extended info
Garras Drums (2015-present)
See also: ex-Toxikull, ex-Corrosão Social, ex-Noisy Trips
Gonçalo Branco Guitars (2015-present)
See also: Mindtaker
Nelson Coelho Guitars (2015-present)
See also: ex-Black Shadows, ex-Karseron
Luís Rodrigues Vocals (2015-present)
João Martins Bass (2020-present)


Technical info
(IMG:https://metalarea.org/images/spectrogram/2020_Oct/26f6d1d7f6de81bc9727d67341a2974a.png)
Input File: 05 - World Domination.mp3
Channels : 2
Sample Rate : 44100
Precision : 16-bit
Duration : 00:05:14.64 = 13875448 samples = 23597.7 CDDA sectors
File Size : 12.9M
Bit Rate : 327k
Sample Encoding: MPEG audio (layer I, II or III)
Comments :
Title=World Domination
Artist=ThrashWall
Album=ThrashWall
Tracknumber=5
Year=2020



Register


Go to the top of the page
  Insert nick Quick quote
+Quote Post
 
Start new topic
Replies (1 - 6)
post Oct 19 2020, 19:59:53
Post #2

Правь статус, ####!111
**************
Group: Металариец
Posts: 26,652
Releases: 19211
From: Г.Харьков
On Forums: 9 years 2 months
Thanks: 384063 time(s)
Unknown


FLAC (Tracks) 234 mb
Register


Go to the top of the page
  Insert nick Quick quote
+Quote Post
post Oct 20 2020, 19:57:19
Post #3

Четыре Литра
****
Group: Металариец
Posts: 376
Releases: 0
From: Kyiv
On Forums: 9 years 3 months
Thanks: 154 time(s)
Ukraine


Крепкая трясучка


Thanks:
Go to the top of the page
  Insert nick Quick quote
+Quote Post
post Oct 21 2020, 21:31:12
Post #4

MDM-Thrash Metal
**************
Group: Металариец
Posts: 10,482
Releases: 1257
From: Одесса
On Forums: 13 years 11 months
Thanks: 30641 time(s)
Ukraine


ЦИТАТА(kessler @ Oct 20 2020, 21:57:19) *
Крепкая трясучка

Но не более.
Go to the top of the page
  Insert nick Quick quote
+Quote Post
post Oct 27 2020, 21:55:39
Post #5

Common dweller of hell
**************
Group: Металариец
Posts: 3,873
Releases: 12
From: Dnipro
On Forums: 13 years 1 week
Thanks: 1521 time(s)
Ukraine


Очень понравился альбом, где то 7 из 10, средина альбома и концовка самое то. (IMG:style_emoticons/default/20.gif)


Thanks:
Go to the top of the page
  Insert nick Quick quote
+Quote Post
post Nov 17 2020, 22:49:24
Post #6

Два Литра
**
Group: Завсегдатай
Posts: 158
Releases: 0
On Forums: 2 years 8 months
Thanks: 103 time(s)
Russian Federation


Олдскульный альбом
Go to the top of the page
  Insert nick Quick quote
+Quote Post
post Dec 14 2020, 06:31:32
Post #7

i listen to black metal
**************
Group: Металариец
Posts: 2,963
Releases: 138
From: Москва
On Forums: 14 years 7 months
Thanks: 2322 time(s)
Russian Federation


шик!!!!
Go to the top of the page
  Insert nick Quick quote
+Quote Post

Reply to this topicStart new topic
2 User(s) are reading this topic (2 Guests and 0 Anonymous Users)
0 Members:

 



- Lo-Fi Version Support form
Copyrights and abuse reports form
Time is now: 25th July 2021 - 02:51:50