Welcome Guest ( Log In | Register )

Объявления

* gmail.com упорно продолжает считать почту с нас "unsolicited" и отбивает в том числе и письма активации, поэтому просьба использовать альтернативные почтовые ящики.
------------
* gmail.com continues reject all mail from us as "unsolicited" (activation mails too) therefore please use alternate mail servers.
> Coexistence - Collateral Dimension (2020), Progressive Death Metal (D6)
post Oct 21 2020, 01:34:31
Post #1

Правь статус, ####!111
**************
Group: Металариец
Posts: 35,941
Releases: 26785
From: Г.Харьков
On Forums: 12 years 2 weeks
Thanks: 581050 time(s)
Ukraine


(IMG:https://metalarea.org/images/audiocovers/2020_Oct/acov_tid342763_thumb.jpg)

*Artist: Coexistence
*Album: Collateral Dimension
*Year: 2020
*Genre: Progressive Death Metal
*Country: Italy (IMG:https://metalarea.org/forum/style_images/flags/Italy.png)
*Format: mp3@CBR320kbps
*Size: 125MB

Tracklist:
1. Metaphysical Essence 06:40
2. Symbiosis of Creation 05:36
3. Eclipse 07:10
4. Detach from the Abyss 07:58
5. Perception 01:35
6. Collateral Dimension 04:14
7. Revert 06:00
8. The Nadir Element 07:46
9. Floating in the Celestial Wave 07:34
******************************
Total playing time: 54:33





Extended info
Mirko Battaglia Pitinello Guitars, Vocals (2015-present)
Christian Luconi Bass (2016-present)
See also: ex-Violent Sun, ex-Coram Lethe, ex-Inside Mankind, ex-Erase
Alessandro Formichi Drums (2016-present)
Leonardo Bellavista Guitars (2016-present)
See also: Burial, Vexovoid, ex-Violent Sun, ex-Drunken Corpse, ex-CodeFour, ex-Erase, ex-Iron Viper, ex-Stasis Field




Technical info
(IMG:https://metalarea.org/images/spectrogram/2020_Oct/3386593caf02f41bc3d88b52b682b733.png)
Input File: 07. Revert.mp3
Channels : 2
Sample Rate : 44100
Precision : 16-bit
Duration : 00:06:00.17 = 15883629 samples = 27013 CDDA sectors
File Size : 14.4M
Bit Rate : 320k
Sample Encoding: MPEG audio (layer I, II or III)
Comments :
Title=Revert
Artist=Coexistence
Album=Collateral Dimension
Tracknumber=07
Year=2020



Register


Go to the top of the page
  Insert nick Quick quote
+Quote Post
 
Start new topic
Replies (1 - 6)
post Oct 23 2020, 19:50:28    Сейчас играет: Coexistence - Collateral Dimension (2020)
Post #2

Литр
*
Group: Подсевший
Posts: 87
Releases: 0
From: Belarus
On Forums: 13 years 10 months
Thanks: 59 time(s)
Belarus


Ну это высший пилотаж. На фоне последних скучных релизов Beyond Creation - эти их продолжатели выдали довльно интересный альбом.


Thanks:
(1) Язва,
Go to the top of the page
  Insert nick Quick quote
+Quote Post
post Oct 27 2020, 07:39:56
Post #3

hearer & reader
**************
Group: Металариец
Posts: 10,927
Releases: 234
From: Moscow
On Forums: 16 years 8 months
Thanks: 13671 time(s)
Russian Federation


Register
Go to the top of the page
  Insert nick Quick quote
+Quote Post
post Nov 2 2020, 13:18:32
Post #4

0%Tolerance
**************
Group: Металариец
Posts: 2,987
Releases: 0
On Forums: 11 years 8 months
Thanks: 567 time(s)
Unknown


Невнятное дроμилово.


Thanks:
(1) Shadowman,
Go to the top of the page
  Insert nick Quick quote
+Quote Post
post Nov 6 2020, 14:49:29
Post #5

Schuldinerist
**************
Group: Металариец
Posts: 10,961
Releases: 34
From:
On Forums: 17 years 1 month
Thanks: 7428 time(s)
Russian Federation


Наконец-то после долгого перерыва на горизонте появился серьезный альбом, готовый претендовать на титул "лучшего техно-прог-дэта" 2020 года.
Всё тут сосуществует на отлично: вкусные мелодии и ритмы, точные уместные соляги и объемный бас, и интересные барабаны, и всё сбалансировано, и гроулинг слух не режет...
Играют итальянцы в духе Beyond Creation.
Твердая 9 из 10.


Go to the top of the page
  Insert nick Quick quote
+Quote Post
post Feb 11 2021, 12:53:31
Post #6

Морской Волк
*******
Group: Металариец
Posts: 793
Releases: 0
From: Питер
On Forums: 15 years 7 months
Thanks: 427 time(s)
Russian Federation


Ну не знаю, не убедили. Да все сыграно в духе BC, но и только. Каких то особо вкусных мелодий и ритмов лично я не услышал, увы.
Go to the top of the page
  Insert nick Quick quote
+Quote Post
post Apr 17 2021, 22:05:34
Post #7

Empty Words
**************
Group: Металариец
Posts: 2,114
Releases: 13
From: Москва
On Forums: 14 years 9 months
Thanks: 2936 time(s)
Russian Federation


Добротный медитативный chill out с ведущим мурлыкающим басом. Можно включать детям перед сном: смерть выветрилась. Для фона вполне в кайф, а изюминки надо сильно хотеть и мочь поискать.
Go to the top of the page
  Insert nick Quick quote
+Quote Post

Reply to this topicStart new topic
2 User(s) are reading this topic (2 Guests and 0 Anonymous Users)
0 Members:

 



- Lo-Fi Version Support form
Copyrights and abuse reports form
Time is now: 26th May 2024 - 09:48:20