Welcome Guest ( Log In | Register )

> Black Fate - Ithaca (2020), Progressive/Power Metal (D8)
post Oct 22 2020, 11:57:35
Post #1

Serial Uploader
Group Icon
Group: V.I.P
Posts: 37,601
Releases: 35773
From: Lithuania
On Forums: 13 years 1 week
Thanks: 432788 time(s)
Lithuania


(IMG:https://metalarea.org/images/audiocovers/2020_Oct/acov_tid342804_thumb.jpg)

*Artist: Black Fate
*Album: Ithaca
*Year: 2020
*Genre: Progressive/Power Metal
*Country: Greece (IMG:https://metalarea.org/forum/style_images/flags/Greece.png)
*Format: mp3@CBR320kbps
*Size: 120MB

Tracklist:
01. From Ashes & Dust 01:35
02. Ithaca 05:29
03. Maze 03:54
04. Savior Machine 04:22
05. Fortress Of Solitude 04:17
06. Nemesis 04:57
07. Secret Place 04:15
08. Reach For The Stars 04:35
09. Rainbow's End 03:49
10. One Last Breath 04:50
11. Queen Of Shadows 04:38
12. Circle Of Despair 05:33
******************************
Total playing time: 52:14


(IMG:https://metalarea.org/images/youtube.png)

Technical info
(IMG:https://metalarea.org/images/spectrogram/2020_Oct/f17f40228a9883a1557fd700c17ca7cd.png)
Input File: 03. Maze.mp3
Channels : 2
Sample Rate : 44100
Precision : 16-bit
Duration : 00:00:00.23 = 10319 samples = 17.5493 CDDA sectors
File Size : 9.45M
Bit Rate : 323M
Sample Encoding: MPEG audio (layer I, II or III)
Comments :
Title=Maze
Artist=Black Fate
Album=Ithaca
Tracknumber=3
Year=2020-23-10
Genre=Heavy Metal
Discnumber=1



Register


Go to the top of the page
  Insert nick Quick quote
+Quote Post
 
Start new topic
Replies (1 - 5)
post Oct 22 2020, 20:30:05
Post #2

Тридцать лет на борту "Тяжёлого" крейсера
**************
Group: Металариец
Posts: 2,597
Releases: 0
From: Питер
On Forums: 14 years 3 days
Thanks: 808 time(s)
Russian Federation


парни довольно удачно продолжают топить под Kamelot
релиз приятный, но вот изящества аранжировок не хватает, и хитовости
но работа достойная


Thanks:
Go to the top of the page
  Insert nick Quick quote
+Quote Post
post Oct 23 2020, 07:40:56
Post #3

MDM-Thrash Metal
**************
Group: Металариец
Posts: 10,379
Releases: 1229
From: Одесса
On Forums: 13 years 10 months
Thanks: 30197 time(s)
Ukraine


Материал и вправду хорош. По стилистике скорее Progressive Power Metal


Go to the top of the page
  Insert nick Quick quote
+Quote Post
post Oct 23 2020, 15:01:58
Post #4

hearer & reader
**************
Group: Металариец
Posts: 9,746
Releases: 172
From: Moscow
On Forums: 13 years 9 months
Thanks: 10909 time(s)
Russian Federation


Register
Go to the top of the page
  Insert nick Quick quote
+Quote Post
post Nov 10 2020, 16:18:52
Post #5

Ъ
**************
Group: Металариец
Posts: 10,650
Releases: 9
On Forums: 12 years 5 months
Thanks: 2168 time(s)
Sweden


Третьесорт, весь альбом не осилил, вокал так себе.
Go to the top of the page
  Insert nick Quick quote
+Quote Post
post Jun 10 2021, 20:37:06
Post #6

Пять Литров
*****
Group: Металариец
Posts: 467
Releases: 0
From: Москва
On Forums: 14 years 7 months
Thanks: 106 time(s)
Russian Federation


Добротный хэви-пауэр.
Go to the top of the page
  Insert nick Quick quote
+Quote Post

Reply to this topicStart new topic
1 User(s) are reading this topic (1 Guests and 0 Anonymous Users)
0 Members:

 



- Lo-Fi Version Support form
Copyrights and abuse reports form
Time is now: 14th June 2021 - 22:16:44