Welcome Guest ( Log In | Register )

> Xeno - Sojourn (2020), Progressive Death Metal
post Oct 29 2020, 14:31:07
Post #1

Serial Uploader
Group Icon
Group: V.I.P
Posts: 37,608
Releases: 35780
From: Lithuania
On Forums: 13 years 1 month
Thanks: 433178 time(s)
Lithuania


(IMG:https://metalarea.org/images/audiocovers/2020_Oct/acov_tid343097_thumb.jpg)

*Artist: Xeno
*Album: Sojourn
*Year: 2020
*Genre: Progressive Death Metal
*Country: Netherlands (IMG:https://metalarea.org/forum/style_images/flags/Netherlands.png)
*Format: mp3@CBR320kbps
*Size: 151MB

Tracklist:
01. Revery 01:22
02. In Statis 06:01
03. Dusk 06:43
04. Epiphany 05:40
05. Exile 06:09
06. Nomad 05:47
07. Memories 02:30
08. Closure 05:31
09. Resurge 06:18
10. Uncaged 06:32
11. Sojourn 13:15
******************************
Total playing time: 1:05:48



(IMG:https://metalarea.org/images/youtube.png)

Technical info
(IMG:https://metalarea.org/images/spectrogram/2020_Oct/ad964effe678b1887a164e4e927f6eb1.png)
Input File: 02. In Stasis.mp3
Channels : 2
Sample Rate : 44100
Precision : 16-bit
Duration : 00:00:00.36 = 15876 samples = 27 CDDA sectors
File Size : 14.5M
Bit Rate : 323M
Sample Encoding: MPEG audio (layer I, II or III)
Comments :
Title=In Stasis
Artist=Xeno
Album=Sojourn
Tracknumber=2
Year=2020-30-10
Genre=Industrial
Discnumber=1



Register


Go to the top of the page
  Insert nick Quick quote
+Quote Post
 
Start new topic
Replies (1 - 3)
post Oct 30 2020, 15:15:59
Post #2

hearer & reader
**************
Group: Металариец
Posts: 9,814
Releases: 172
From: Moscow
On Forums: 13 years 10 months
Thanks: 11071 time(s)
Russian Federation


https://music.yandex.ru/album/11998571
прогрессивчик/металкорчик
Go to the top of the page
  Insert nick Quick quote
+Quote Post
post Oct 30 2020, 15:52:00
Post #3

В прогрессиве
****
Group: Металариец
Posts: 334
Releases: 61
From: saratov
On Forums: 11 years 11 months
Thanks: 1492 time(s)
Russian Federation


ЦИТАТА(AHBAnep @ Oct 30 2020, 18:15:59) *
https://music.yandex.ru/album/11998571
прогрессивчик/металкорчик

в каком месте?...для прогдетмет звучат слишком слащавенько,но на уши ложится приятненько
Go to the top of the page
  Insert nick Quick quote
+Quote Post
post Nov 1 2020, 09:46:30
Post #4

Пять Литров
*****
Group: Металариец
Posts: 497
Releases: 0
From: Ташкент
On Forums: 13 years 5 months
Thanks: 160 time(s)
Uzbekistan


Во всяком случае ложится на ухо приятственно, без чрезмерной зауми. Для многократного прослушивания.


Thanks:
(1) Yngwarr,
Go to the top of the page
  Insert nick Quick quote
+Quote Post

Reply to this topicStart new topic
2 User(s) are reading this topic (2 Guests and 0 Anonymous Users)
0 Members:

 



- Lo-Fi Version Support form
Copyrights and abuse reports form
Time is now: 28th July 2021 - 23:50:22