Welcome Guest ( Log In | Register )

> Haxon - Wrath Of An Era (2020), Thrash Metal
post Oct 30 2020, 11:44:19
Post #1

Правь статус, ####!111
**************
Group: Металариец
Posts: 26,658
Releases: 19228
From: Г.Харьков
On Forums: 9 years 2 months
Thanks: 384086 time(s)
Unknown


(IMG:https://metalarea.org/images/audiocovers/2020_Oct/acov_tid343160_thumb.jpg)

*Artist: Haxon
*Album: Wrath Of An Era
*Year: 2020
*Genre: Thrash Metal
*Country: United States (IMG:https://metalarea.org/forum/style_images/flags/United%20States.png)
*Format: mp3@CBR320kbps
*Size: 135MB

Tracklist:
1. Wrath of an Era 01:29
2. The Periphery 04:08
3. Man, The State and War 04:32
4. The Equilibrium of Death 01:23
5. Misplaced Optimism 07:44
6. Sands of Doom 05:57
7. When the Phalanx Breaks 06:17
8. MDCCXCIII 01:11
9. Mask of the Other 05:19
10. By Virtue 06:43
11. 13/00 01:12
12. Etched in Stone Part ll 10:07
******************************
Total playing time: 56:02




Extended info
Dan Zahal Bass
Mike Dodaro Drums
Tyler Cantrell Guitars
Corey Hornbaker Vocals


Technical info
(IMG:https://metalarea.org/images/spectrogram/2020_Oct/f895fef0e0b95ae60dc647c02939dd1b.png)
Input File: 06 Sands of Doom.mp3
Channels : 2
Sample Rate : 44100
Precision : 16-bit
Duration : 00:05:57.35 = 15759047 samples = 26801.1 CDDA sectors
File Size : 14.9M
Bit Rate : 334k
Sample Encoding: MPEG audio (layer I, II or III)
Comments :
Title=Sands of Doom
Artist=Haxon
Album=Wrath of an Era
Tracknumber=6/12
Year=2020-20-20
Genre=Rock
Discnumber=1/1



Register


Go to the top of the page
  Insert nick Quick quote
+Quote Post
 
Start new topic
Replies (1 - 3)
post Oct 30 2020, 22:20:22
Post #2

Четыре Литра
****
Group: Металариец
Posts: 376
Releases: 0
From: Kyiv
On Forums: 9 years 3 months
Thanks: 154 time(s)
Ukraine


Фигня, в общем. Вокалист фу.


Thanks:
(1) Andrew,
Go to the top of the page
  Insert nick Quick quote
+Quote Post
post Nov 8 2020, 23:31:16
Post #3

MDM-Thrash Metal
**************
Group: Металариец
Posts: 10,482
Releases: 1257
From: Одесса
On Forums: 13 years 11 months
Thanks: 30642 time(s)
Ukraine


100%! С первых же минут вокалист отбивает всякую охоту слушать материал дальше...
Go to the top of the page
  Insert nick Quick quote
+Quote Post
post Nov 9 2020, 00:16:32
Post #4

Попсовик от брутала
**************
Group: Металариец
Posts: 7,795
Releases: 77
From: Минск
On Forums: 12 years 7 months
Thanks: 7308 time(s)
Belarus


Не столько сам вокал, сколько сведение. Голос на километр вперед вылез.
Go to the top of the page
  Insert nick Quick quote
+Quote Post

Reply to this topicStart new topic
2 User(s) are reading this topic (2 Guests and 0 Anonymous Users)
0 Members:

 



- Lo-Fi Version Support form
Copyrights and abuse reports form
Time is now: 25th July 2021 - 04:22:01