Welcome Guest ( Log In | Register )

Объявления

* gmail.com упорно продолжает считать почту с нас "unsolicited" и отбивает в том числе и письма активации, поэтому просьба использовать альтернативные почтовые ящики.
------------
* gmail.com continues reject all mail from us as "unsolicited" (activation mails too) therefore please use alternate mail servers.
> Monstrous - Dawnsleeper (2020), Old School Death Metal
post Oct 30 2020, 14:17:28
Post #1

Правь статус, ####!111
**************
Group: Металариец
Posts: 35,992
Releases: 26828
From: Г.Харьков
On Forums: 12 years 3 weeks
Thanks: 581860 time(s)
Ukraine


(IMG:https://metalarea.org/images/audiocovers/2020_Oct/acov_tid343174_thumb.jpg)

*Artist: Monstrous
*Album: Dawnsleeper
*Year: 2020
*Genre: Old School Death Metal
*Country: Sweden (IMG:https://metalarea.org/forum/style_images/flags/Sweden.png)
*Format: mp3@CBR320kbps
*Size: 69MB

Tracklist:
1. Dawnsleeper 01:23
2. At Night They Rise 03:06
3. Barricades of Flesh and Fire 03:04
4. Rise of the Malevolent 03:32
5. Full Body Target 03:01
6. The Crawling Abominations 02:40
7. Turrets Manned for Total War 03:06
8. The Power of the Rotting 02:56
9. Plagues Rage 03:05
10. Victims of Tomorrow 03:25
******************************
Total playing time: 29:18



Extended info
Erik R Bevenrud Drums
See also: Stass
Kjetil Lynghaug Guitars
See also: Echelon, Johansson & Speckmann, Mordenial, Paganizer, Stass, Those Who Bring the Torture
Rogga Johansson Vocals, Guitars, Bass
See also: Bloodgut, Dead Sun, Down Among the Dead Men, Echelon, Eye of Purgatory, Fondlecorpse, Furnace, Ghoulhouse, God Cries, Grisly, Humanity Delete, Johansson & Speckmann, Lobotomy Dept, Massacre, Megascavenger, Necrogod, Paganizer, PermaDeath, Pile of Skulls, Putrevore, Reek, Revolting, Ribspreader, Rogga Johansson, Severed Limbs, Stass, Svitjod, The Cleaner and Mr. Filth's Van Murders, The Dead Cold, The Skeletal, Those Who Bring the Torture, To Descend, ex-Carve, ex-Demiurg, ex-Eaten, ex-Foreboding, ex-Minotaur Head, ex-Skeletal Spectre, ex-Swarming, ex-Terminal Grip, ex-The Grotesquery, Troikadon, ex-Banished from Inferno, ex-Graveyard After Graveyard, ex-Sinners Burn, ex-Soulburn, ex-The 11th Hour, ex-Deranged (live), ex-Bone Gnawer, ex-To the Gallows
Jon Rudin Drums (2020-present)
See also: Dehumanaut, From Ruin, Just Before Dawn, Pale King, Those Who Bring the Torture, Wombbath, ex-Ashcloud, ex-Body Harvest
Jonny Pettersson Vocals (2020-present)
See also: Acid Domain, Ashcloud, Berzerker Legion, Cropsy Maniac, Crossbow Suicide, Gods Forsaken, Heads for the Dead, Henry Kane, Human Harvest, Just Before Dawn, Massacre, Nattravnen, Pale King, Skineater, Syn:drom, The Hangmans Sorrow, Ursinne, Vholdghast, Wombbath, ex-Disfigured Victims, ex-Cavevomit, Troikadon, ex-Sorghegard, ex-Ooz


Technical info
(IMG:https://metalarea.org/images/spectrogram/2020_Oct/449c4393a742fb57902fd67841221df2.png)
Input File: 04. Rise of the Malevolent.mp3
Channels : 2
Sample Rate : 44100
Precision : 16-bit
Duration : 00:03:32.60 = 9375616 samples = 15944.9 CDDA sectors
File Size : 8.70M
Bit Rate : 327k
Sample Encoding: MPEG audio (layer I, II or III)
Comments :
Title=Rise of the Malevolent
Artist=Monstrous
Album=Dawnsleeper
Tracknumber=4
Year=2020



Register


Go to the top of the page
  Insert nick Quick quote
+Quote Post
 
Start new topic
Replies (1 - 5)
post Oct 31 2020, 09:18:14
Post #2

Правь статус, ####!111
**************
Group: Металариец
Posts: 2,790
Releases: 0
From: APATIN, SERBIA, АПАТИН, СЕРБИЯ
On Forums: 16 years 7 months
Thanks: 8874 time(s)



Flac

Register


Go to the top of the page
  Insert nick Quick quote
+Quote Post
post Oct 31 2020, 22:51:34
Post #3

Crush The Enemies
**************
Group: Металариец
Posts: 4,337
Releases: 0
From: Moscow
On Forums: 14 years 8 months
Thanks: 2818 time(s)
Russian Federation



Наш вездесущий РОГГАТЫЙ сумел такого инфернального вокалиста как ПЕТТЕРССОН заманить в свои ОЛДСКУЛЬНЫЕ СЕТИ,поставив его на вокал в параллель себе - интересный ход! (IMG:style_emoticons/default/9.gif)

P.S Изменили саунд по сравнению с дебютником 2019 года в более суховатое русло,поменяв звучание гитар,что не особо негативно сказалось на восприятие материала - коротко,хлёстко,с должным напором!!! (IMG:style_emoticons/default/dwarf-1.gif) (IMG:style_emoticons/default/dwarf-1.gif) (IMG:style_emoticons/default/dwarf-1.gif)


Go to the top of the page
  Insert nick Quick quote
+Quote Post
post Nov 1 2020, 17:06:44
Post #4

Common dweller of hell
**************
Group: Металариец
Posts: 5,397
Releases: 12
From: Dnipro
On Forums: 15 years 10 months
Thanks: 2198 time(s)
Ukraine


Отличное мяско (IMG:style_emoticons/default/20.gif)
Go to the top of the page
  Insert nick Quick quote
+Quote Post
post Nov 3 2020, 12:51:35
Post #5

мизантроп
**************
Group: Металариец
Posts: 2,094
Releases: 0
From: Санкт-Петербург
On Forums: 14 years 9 months
Thanks: 946 time(s)
Russian Federation


Прошлогодний альбом Monstrous - World Under Siege (2019) из-за плохого звука не стал оставлять на винче (хотя материал был не так и плох)
Послушаю, что на сей раз...


Thanks:
Go to the top of the page
  Insert nick Quick quote
+Quote Post
post Aug 21 2022, 12:01:04
Post #6

Два Литра
**
Group: Завсегдатай
Posts: 154
Releases: 37
From: Россия
On Forums: 17 years 7 months
Thanks: 527 time(s)
Russian Federation


https://cloud.mail.ru/public/z2Cz/baHigrP87 image+cue
Go to the top of the page
  Insert nick Quick quote
+Quote Post

Reply to this topicStart new topic
2 User(s) are reading this topic (2 Guests and 0 Anonymous Users)
0 Members:

 



- Lo-Fi Version Support form
Copyrights and abuse reports form
Time is now: 30th May 2024 - 22:30:17