Welcome Guest ( Log In | Register )

> Blood Of Us - Here Comes The Fall (2020), Gothic/Doom/Death Metal
post Nov 3 2020, 18:27:54
Post #1

Мегаманьяк
***********
Group: Металариец
Posts: 1,830
Releases: 296
On Forums: 13 years 9 months
Thanks: 7235 time(s)
Russian Federation


(IMG:http://metalarea.org/images/audiocovers/2020_Nov/acov_tid343412_thumb.jpg)

*Artist: Blood Of Us
*Album: Here Comes The Fall
*Year: 2020
*Genre: Gothic/Doom/Death Metal
*Country: Spain (IMG:http://metalarea.org/forum/style_images/flags/Spain.png)
*Format: mp3@CBR320kbps
*Size: 90MB

Tracklist:
01. I Rise 04:50
02. We All Turn to Dust 05:30
03. The Fall 04:02
04. Fades to Gray 04:44
05. In Her Eyes 04:32
06. The Unbreakable 04:41
07. Last Day 06:53
08. As the Story Ends 04:05
******************************
Total playing time: 39:17




Extended info


1st album by blood of us. recorded between 2019 and 2020.

released October 30, 2020

produced, mixed & mastered by Francesco Antonelli

all songs by JM except 4 and 8 by JM & Alfredo
all lyrics by JM

recorded by:
JM: vocals, synths + drums + keyboards programming
F. Antonelli: drums programming, bass, keyboards & piano
C. Damiano: all guitars

aditional vocals
on “i rise” by G. Cambria
on “fades to gray” by Edelita
on “in her eyes” by I. Vecchini

layout & artwork: J. Cazorla
photos: Edelita

recorded in Valencia and Madrid,ES except guitars recorded in Merida,VE


***FLAC-Rip***


Technical info
(IMG:http://metalarea.org/images/spectrogram/2020_Nov/14a036cb4a1958d7ae648d9b3ff400c6.png)
Input File: 01-I Rise.mp3
Channels : 2
Sample Rate : 44100
Precision : 16-bit
Duration : 00:04:50.19 = 12797247 samples = 21764 CDDA sectors
File Size : 11.6M
Bit Rate : 320k
Sample Encoding: MPEG audio (layer I, II or III)
Comments :
Title=I Rise
Artist=Blood of Us
Album=Here Comes the Fall
Tracknumber=1
Year=2020
Genre=Gothic/Doom/Death Metal



Register


Go to the top of the page
  Insert nick Quick quote
+Quote Post
 
Start new topic
Replies (1 - 7)
post Nov 3 2020, 19:30:13
Post #2

Пять Литров
*****
Group: Металариец
Posts: 488
Releases: 0
On Forums: 4 years 6 months
Thanks: 167 time(s)
Belarus


Вот так и выглядит поп-музыка, если ее авторы хотят чего-то недостижимого.


Thanks:
(1) lacrimoza,
Go to the top of the page
  Insert nick Quick quote
+Quote Post
post Nov 3 2020, 19:40:49
Post #3

Мегаманьяк
***********
Group: Металариец
Posts: 1,830
Releases: 296
On Forums: 13 years 9 months
Thanks: 7235 time(s)
Russian Federation


FLAC tracks
Register


Go to the top of the page
  Insert nick Quick quote
+Quote Post
post Nov 4 2020, 00:48:45
Post #4

Это просто место… где все подошло к концу.
**************
Group: Металариец
Posts: 6,618
Releases: 0
From: Страны Мамонтов
On Forums: 15 years 5 months
Thanks: 2635 time(s)
Antarctica


Уныло, увы (IMG:style_emoticons/default/6.gif)
Go to the top of the page
  Insert nick Quick quote
+Quote Post
post Nov 8 2020, 09:07:56
Post #5

Ъ
**************
Group: Металариец
Posts: 11,023
Releases: 9
On Forums: 13 years 7 months
Thanks: 2217 time(s)
Sweden


Третьесорт.


Thanks:
Go to the top of the page
  Insert nick Quick quote
+Quote Post
post Nov 8 2020, 12:42:48
Post #6

Семь Литров
*******
Group: Металариец
Posts: 750
Releases: 0
From: Лыткарино
On Forums: 3 years 3 months
Thanks: 200 time(s)
Russian Federation


Вроде бы задатки есть, но действительно третьесорт, скучный альбом.
Go to the top of the page
  Insert nick Quick quote
+Quote Post
post Jan 7 2021, 08:44:06
Post #7

Пять Литров
*****
Group: Металариец
Posts: 489
Releases: 10
From: Суворов
On Forums: 4 years 6 months
Thanks: 148 time(s)
Russian Federation


Довольно слабовато для данного направления
Go to the top of the page
  Insert nick Quick quote
+Quote Post
post May 13 2022, 20:57:54
Post #8

threat
**********
Group: Металариец
Posts: 1,089
Releases: 0
On Forums: 16 years 1 week
Thanks: 383 time(s)
Turkey


320 kbps

Register
Go to the top of the page
  Insert nick Quick quote
+Quote Post

Reply to this topicStart new topic
1 User(s) are reading this topic (1 Guests and 0 Anonymous Users)
0 Members:

 



- Lo-Fi Version Support form
Copyrights and abuse reports form
Time is now: 15th August 2022 - 23:46:18