Welcome Guest ( Log In | Register )

> Faces Of Death - Usurper Of Souls (2020), Thrash Metal (D6)
post Nov 7 2020, 08:18:01
Post #1

Правь статус, ####!111
**************
Group: Металариец
Posts: 26,729
Releases: 19290
From: Г.Харьков
On Forums: 9 years 2 months
Thanks: 386134 time(s)
Unknown


(IMG:https://metalarea.org/images/audiocovers/2020_Nov/acov_tid343577_thumb.jpg)

*Artist: Faces Of Death
*Album: Usurper Of Souls
*Year: 2020
*Genre: Thrash Metal
*Country: Brazil (IMG:https://metalarea.org/forum/style_images/flags/Brazil.png)
*Format: mp3@CBR320kbps
*Size: 91MB

Tracklist:
1. Usurper of Souls
2. Empty Minds
3. Deep Agony
4. Monster Medium
5. Faith or Fear
6. Open Wounds
7. Killer...in the Name of God
8. Death Virus
9. Warlord
******************************
Total playing time: 38:47



Extended info
Laurence Miranda Vocals, Guitars (1990-present)
Sylvio Miranda Bass (2017-present)
Sidney Ramos Drums (2017-present)
Felipe Rodrigues Guitars (2018-present)


Technical info
(IMG:https://metalarea.org/images/spectrogram/2020_Nov/ba07ab9856d71eed6f0ca67e7c64c059.png)
Input File: 07 - Killer...in the Name of God.mp3
Channels : 2
Sample Rate : 44100
Precision : 16-bit
Duration : 00:04:22.52 = 11577088 samples = 19688.9 CDDA sectors
File Size : 10.8M
Bit Rate : 329k
Sample Encoding: MPEG audio (layer I, II or III)
Comments :
Title=Killer...in the Name of God
Artist=Faces of Death
Album=Usurper of Souls
Tracknumber=7
Year=2020



Register


Go to the top of the page
  Insert nick Quick quote
+Quote Post
 
Start new topic
Replies (1 - 1)
post Nov 7 2020, 17:04:12
Post #2

Четыре Литра
****
Group: Металариец
Posts: 377
Releases: 0
From: Kyiv
On Forums: 9 years 3 months
Thanks: 154 time(s)
Ukraine


Грувятина


Thanks:
(1) AHBAnep,
Go to the top of the page
  Insert nick Quick quote
+Quote Post

Reply to this topicStart new topic
2 User(s) are reading this topic (2 Guests and 0 Anonymous Users)
0 Members:

 



- Lo-Fi Version Support form
Copyrights and abuse reports form
Time is now: 1st August 2021 - 12:24:49