Welcome Guest ( Log In | Register )

> Cytolysis - Portraits Of Malevolence (2020), Brutal Death Metal
post Nov 9 2020, 20:51:43
Post #1

Правь статус, ####!111
**************
Group: Металариец
Posts: 26,375
Releases: 18969
From: Г.Харьков
On Forums: 9 years 1 month
Thanks: 378679 time(s)
Unknown


(IMG:https://metalarea.org/images/audiocovers/2020_Nov/acov_tid343662_thumb.jpg)

*Artist: Cytolysis
*Album: Portraits Of Malevolence
*Year: 2020
*Genre: Brutal Death Metal
*Country: United States (IMG:https://metalarea.org/forum/style_images/flags/United%20States.png)
*Format: mp3@CBR320kbps
*Size: 97MB

Tracklist:
01. Cadaver Architect
02. Forced Inhalation
03. The Horror of Intimate Pleasure
04. Eternally in Torment
05. Symbolic Violation
06. A Vicious Demise
07. Modern Day Atrocities
08. Psychological Submission
09. Severe Fetal Anomalies
******************************
Total playing time: 42:25




Extended info
Darren Cesca (Deeds of Flesh, Goratory, Pillory) single-handedly composed, performed and recorded the album "Portraits Of Malevolence". 9 original Death Metal tracks, woven into a single conceptual narrative.


Technical info
(IMG:https://metalarea.org/images/spectrogram/2020_Nov/6cb18b52673406249ac095116f0fd03e.png)
Input File: 04. Eternally In Torment.mp3
Channels : 2
Sample Rate : 44100
Precision : 16-bit
Duration : 00:05:55.00 = 15655500 samples = 26625 CDDA sectors
File Size : 14.2M
Bit Rate : 320k
Sample Encoding: MPEG audio (layer I, II or III)
Comments :
Title=Eternally in Torment
Artist=Cytolysis
Album=Portraits of Malevolence
Tracknumber=04
Year=2020



Register

Register


Go to the top of the page
  Insert nick Quick quote
+Quote Post
 
Start new topic
Replies (1 - 6)
post Nov 10 2020, 02:16:04
Post #2

\m/
Group Icon
Group: S-moderation team
Posts: 7,932
Releases: 19
From: Петропавловск-Камчатский
On Forums: 12 years 1 week
Thanks: 7984 time(s)
Russian Federation


Added links by Andrew


Thanks:
Go to the top of the page
  Insert nick Quick quote
+Quote Post
post Nov 10 2020, 08:59:06
Post #3

Маньяк
**********
Group: Металариец
Posts: 1,040
Releases: 1
From: APATIN, SERBIA, АПАТИН, СЕРБИЯ
On Forums: 13 years 8 months
Thanks: 2308 time(s)



Flac

Register


Thanks:
Go to the top of the page
  Insert nick Quick quote
+Quote Post
post Nov 10 2020, 09:30:36
Post #4

Чёткий пацан из Автово...
Group Icon
Group: V.I.P
Posts: 9,330
Releases: 40
From: Город над вольной Невой...
On Forums: 15 years 3 days
Thanks: 4815 time(s)
Russian Federation


Ужасающий вокал и хард-роковые танцующие (да-да!) мотивы не позволили дослушать даже второй трек.
На мой взгляд - издевательство над стилем.
Хотя обложка потрясающая! Повёлся исключительно на неё. Но.. под капотом дела оказались значительно хуже (IMG:style_emoticons/default/smile2.gif)


Go to the top of the page
  Insert nick Quick quote
+Quote Post
post Nov 11 2020, 08:22:57
Post #5

+++++++++++
**********
Group: Металариец
Posts: 1,370
Releases: 90
From: Санкт-Петербург
On Forums: 14 years 5 months
Thanks: 3028 time(s)
Russian Federation


ЦИТАТА(Bloodn Lord @ 10th November 2020 - 11:30:36) *
Хотя обложка потрясающая! Повёлся исключительно на неё.


Я тоже из-за обложки послушал (IMG:style_emoticons/default/5.gif)


Thanks:
Go to the top of the page
  Insert nick Quick quote
+Quote Post
post Nov 14 2020, 21:15:31
Post #6

Два Литра
**
Group: Завсегдатай
Posts: 183
Releases: 0
On Forums: 11 years 6 months
Thanks: 51 time(s)
Russian Federation


Да, обложка классная.
Go to the top of the page
  Insert nick Quick quote
+Quote Post
post Nov 15 2020, 10:06:47
Post #7

Правь статус, ####!111
**************
Group: Металариец
Posts: 2,880
Releases: 0
From: Buffalo
On Forums: 12 years 2 months
Thanks: 1844 time(s)
United States


Осталось понять, что именно изображено на обложке.
Go to the top of the page
  Insert nick Quick quote
+Quote Post

Reply to this topicStart new topic
2 User(s) are reading this topic (2 Guests and 0 Anonymous Users)
0 Members:

 



- Lo-Fi Version Support form
Copyrights and abuse reports form
Time is now: 25th June 2021 - 10:04:54