Welcome Guest ( Log In | Register )

> Sepulchre By The Sea - Conqueror Worm (2020), Atmospheric Black Metal
post Nov 9 2020, 22:00:20
Post #1

Время Мары
**************
Group: Металариец
Posts: 3,239
Releases: 471
From: Харьков
On Forums: 12 years 2 weeks
Thanks: 9664 time(s)
Ukraine


(IMG:http://metalarea.org/images/audiocovers/2020_Nov/acov_tid343666_thumb.jpg)

*Artist: Sepulchre By The Sea
*Album: Conqueror Worm
*Year: 2020
*Genre: Atmospheric Black Metal
*Country: United Kingdom (IMG:http://metalarea.org/forum/style_images/flags/United%20Kingdom.png)
*Format: mp3@CBR320kbps
*Size: 134MB

Tracklist:
01. I Loved Alone 06:40
02. Conqueror Worm 06:40
03. And So It Crumbles 12:07
04. Slices of Death 07:34
05. Behind the Walls 07:50
06. Plutonian Shores 17:14
******************************
Total playing time: 58:05

Technical info
(IMG:http://metalarea.org/images/spectrogram/2020_Nov/90fdf14b1f088c5e7fccce75996f3a84.png)
Input File: 02 - Conqueror Worm.mp3
Channels : 2
Sample Rate : 44100
Precision : 16-bit
Duration : 00:06:40.53 = 17663549 samples = 30040 CDDA sectors
File Size : 16.1M
Bit Rate : 322k
Sample Encoding: MPEG audio (layer I, II or III)
Comments :
Title=Conqueror Worm
Artist=Sepulchre by the Sea
Album=Conqueror Worm
Tracknumber=2
Year=2020
Discnumber=1/1



Register


Go to the top of the page
  Insert nick Quick quote
+Quote Post
 
Start new topic
Replies (1 - 3)
post Nov 10 2020, 04:50:44
Post #2

Маньяк
**********
Group: Металариец
Posts: 1,286
Releases: 458
On Forums: 10 years 7 months
Thanks: 9829 time(s)
Italy




Go to the top of the page
  Insert nick Quick quote
+Quote Post
post Nov 10 2020, 21:27:49
Post #3

Epic Atmospheric Member
**************
Group: Металариец
Posts: 2,087
Releases: 163
From: Deadwood
On Forums: 13 years 10 months
Thanks: 4154 time(s)
Georgia


Uninspired crap.


Thanks:
(1) stub888,
Go to the top of the page
  Insert nick Quick quote
+Quote Post
post Dec 23 2020, 16:28:11
Post #4

brutalcesar
**************
Group: Металариец
Posts: 18,207
Releases: 71
From: Рязань
On Forums: 12 years 5 months
Thanks: 10253 time(s)
Russian Federation


ЦИТАТА(The_Hound @ Nov 11 2020, 00:27:49) *
Uninspired crap.

Точно!
Go to the top of the page
  Insert nick Quick quote
+Quote Post

Reply to this topicStart new topic
2 User(s) are reading this topic (2 Guests and 0 Anonymous Users)
0 Members:

 



- Lo-Fi Version Support form
Copyrights and abuse reports form
Time is now: 23rd June 2021 - 22:56:18