Welcome Guest ( Log In | Register )

> The Chemical Mind - That Benign Terror (2020), Atmospheric/Post-Black Metal
post Nov 13 2020, 09:58:18
Post #1

Время Мары
**************
Group: Металариец
Posts: 3,242
Releases: 473
From: Харьков
On Forums: 12 years 1 month
Thanks: 9719 time(s)
Ukraine


(IMG:http://metalarea.org/images/audiocovers/2020_Nov/acov_tid343789_thumb.jpg)

*Artist: The Chemical Mind
*Album: That Benign Terror
*Year: 2020
*Genre: Atmospheric/Post-Black Metal
*Country: United States (IMG:http://metalarea.org/forum/style_images/flags/United%20States.png)
*Format: mp3@CBR320kbps
*Size: 97MB

Tracklist:
01. Seraphim 05:54
02. Dominion 04:46
03. Simulacrum 04:28
04. Obelisk 02:42
05. Sisters 05:00
06. Nephilim 03:49
07. Apophasis 04:41
08. Ophanim 10:39
******************************
Total playing time: 41:59

Technical info
(IMG:http://metalarea.org/images/spectrogram/2020_Nov/be6e897bf092f53ecf859fae0eff1c0e.png)
Input File: 03 - Simulacrum.mp3
Channels : 2
Sample Rate : 44100
Precision : 16-bit
Duration : 00:04:27.59 = 11800719 samples = 20069.2 CDDA sectors
File Size : 10.7M
Bit Rate : 321k
Sample Encoding: MPEG audio (layer I, II or III)
Comments :
Title=Simulacrum
Artist=The Chemical Mind
Album=That Benign Terror
Tracknumber=3
Year=2020
Discnumber=1/1



Register


Go to the top of the page
  Insert nick Quick quote
+Quote Post
 
Start new topic
Replies (1 - 3)
Living_Beat
post Nov 13 2020, 11:25:31
Post #2

Guests team






Опа ничо так стукают пацанчики!!!! Чотенький пост блек в тачилу!!!
Go to the top of the page
  Insert nick Quick quote
+Quote Post
post Nov 13 2020, 17:35:35
Post #3

Восемь Литров
********
Group: Металариец
Posts: 848
Releases: 0
On Forums: 13 years 9 months
Thanks: 383 time(s)
Poland


https://nickkruegermusic.com/album/that-benign-terror
Go to the top of the page
  Insert nick Quick quote
+Quote Post
post Dec 21 2020, 12:15:26
Post #4

Group: Подсевший
Posts: 42
Releases: 0
From: Craiova
On Forums: 10 years 9 months
Thanks: 7 time(s)
Romania


Go to the top of the page
  Insert nick Quick quote
+Quote Post

Reply to this topicStart new topic
2 User(s) are reading this topic (2 Guests and 0 Anonymous Users)
0 Members:

 



- Lo-Fi Version Support form
Copyrights and abuse reports form
Time is now: 1st August 2021 - 10:34:42