Welcome Guest ( Log In | Register )

> Burden Of Ymir - And Then Twilight Fell (2020), Black/Folk Metal (D6)
post Nov 13 2020, 13:43:46
Post #1

Правь статус, ####!111
**************
Group: Металариец
Posts: 26,375
Releases: 18969
From: Г.Харьков
On Forums: 9 years 1 month
Thanks: 378709 time(s)
Unknown


(IMG:https://metalarea.org/images/audiocovers/2020_Nov/acov_tid343809_thumb.jpg)

*Artist: Burden Of Ymir
*Album: And Then Twilight Fell
*Year: 2020
*Genre: Black/Folk Metal
*Country: Canada (IMG:https://metalarea.org/forum/style_images/flags/Canada.png)
*Format: mp3@CBR320kbps
*Size: 131MB

Tracklist:
1. First Fjalar is Heard 01:32
2. Loki Unbound 06:25
3. Hordes Ready on Naglfar 08:09
4. Celestial Orbs Consumed 08:04
5. March of the Fire Giants 09:06
6. The Other Hand of Tyr 06:58
7. Nine Steps After Jormungandr pt 2 06:21
8. Splitting the Wolf 05:33
9. The World in Flames 02:49
******************************
Total playing time: 54:57




Extended info
Joe Caswell Everything
See also: Anthromechanicus


Technical info
(IMG:https://metalarea.org/images/spectrogram/2020_Nov/24491055ee1ff5b3799deb79d818b41a.png)
Input File: 05 March of the Fire Giants.mp3
Channels : 2
Sample Rate : 44100
Precision : 16-bit
Duration : 00:09:07.03 = 24124199 samples = 41027.5 CDDA sectors
File Size : 22.5M
Bit Rate : 328k
Sample Encoding: MPEG audio (layer I, II or III)
Comments :
Title=March of the Fire Giants
Artist=Burden of Ymir
Album=And Then Twilight Fell
Tracknumber=5/9
Year=2020-20-20
Discnumber=1/1



Register


Go to the top of the page
  Insert nick Quick quote
+Quote Post
 
Start new topic
Replies (1 - 3)
post Nov 29 2020, 00:17:50
Post #2

FOLK METAL FEVER
**************
Group: Металариец
Posts: 2,222
Releases: 6
From: Kyiv
On Forums: 13 years 7 months
Thanks: 290 time(s)
Ukraine


Для ванменпроджекта совсем неплохо.


Thanks:
(1) avather,
Go to the top of the page
  Insert nick Quick quote
+Quote Post
post Nov 29 2020, 01:05:37
Post #3

Это просто место… где все подошло к концу.
**************
Group: Металариец
Posts: 6,307
Releases: 0
From: Страны Мамонтов
On Forums: 14 years 4 months
Thanks: 2480 time(s)
Antarctica


ЦИТАТА(folker @ Nov 29 2020, 02:17:50) *
Для ванменпроджекта совсем неплохо.

И даже очень
Go to the top of the page
  Insert nick Quick quote
+Quote Post
post Jan 13 2021, 05:30:18
Post #4

i listen to black metal
**************
Group: Металариец
Posts: 2,950
Releases: 138
From: Москва
On Forums: 14 years 6 months
Thanks: 2318 time(s)
Russian Federation


ууух ты!!!!!
забираю.
Go to the top of the page
  Insert nick Quick quote
+Quote Post

Reply to this topicStart new topic
2 User(s) are reading this topic (2 Guests and 0 Anonymous Users)
0 Members:

 



- Lo-Fi Version Support form
Copyrights and abuse reports form
Time is now: 25th June 2021 - 11:34:27