Welcome Guest ( Log In | Register )

> Beherit - Promo Tape [demo] (2020), Black Metal (D)
post Nov 16 2020, 08:49:13
Post #1

неделимое
**********
Group: Металариец
Posts: 1,270
Releases: 117
On Forums: 10 years 1 month
Thanks: 2465 time(s)
Russian Federation


(IMG:http://metalarea.org/images/audiocovers/2020_Nov/acov_tid343950_thumb.jpg)

*Artist: Beherit
*Album: Promo Tape [demo]
*Year: 2020
*Genre: Black Metal
*Country: Finland (IMG:http://metalarea.org/forum/style_images/flags/Finland.png)
*Format: mp3@CBR320kbps
*Size: 16MB

Tracklist:
1. The Oath Of Black Blood 02:36
2. Dawn Of Satan's Millennium 04:39
******************************
Total playing time: 7:15

Extended info
Tape Rip


Technical info
(IMG:http://metalarea.org/images/spectrogram/2020_Nov/5719ab7f1ff860aba81f43e576ce7720.png)
Input File: 01 - (Side Of First Death) The Oath Of Black Blood.mp3
Channels : 2
Sample Rate : 44100
Precision : 16-bit
Duration : 00:02:36.56 = 6904296 samples = 11742 CDDA sectors
File Size : 6.26M
Bit Rate : 320k
Sample Encoding: MPEG audio (layer I, II or III)



Register


Go to the top of the page
  Insert nick Quick quote
+Quote Post
 
Start new topic
Replies (1 - 3)
post Nov 17 2020, 11:56:46
Post #2

Маньяк
**********
Group: Металариец
Posts: 1,313
Releases: 37
From: Pietari
On Forums: 15 years 11 months
Thanks: 2165 time(s)
Russian Federation


ЦИТАТА
Track 1 taken from Demonomancy demo. Track 2 taken from Dawn of Satan's Millennium EP.
Track 1 recorded June 1990
Track 2 recorded October 1990


Go to the top of the page
  Insert nick Quick quote
+Quote Post
post Nov 19 2020, 10:49:46
Post #3

De Mysteriis Dom Sathanas
**************
Group: Металариец
Posts: 4,346
Releases: 64
From: Doom
On Forums: 13 years 4 months
Thanks: 3741 time(s)
Russian Federation


И чего? Кому-то еще нужно 100500 выкладывание этих песен?
Go to the top of the page
  Insert nick Quick quote
+Quote Post
post Nov 20 2020, 20:11:36
Post #4

? ? ? ? ? ? ? ?
*******
Group: Металариец
Posts: 744
Releases: 23
On Forums: 14 years 9 months
Thanks: 578 time(s)
Russian Federation


ЦИТАТА(RUSP73 @ Nov 19 2020, 12:49:46) *
И чего? Кому-то еще нужно 100500 выкладывание этих песен?

Ну это же Beherit! (IMG:style_emoticons/default/crazy.gif)


Thanks:
(1) Occultas,
Go to the top of the page
  Insert nick Quick quote
+Quote Post

Reply to this topicStart new topic
2 User(s) are reading this topic (2 Guests and 0 Anonymous Users)
0 Members:

 



- Lo-Fi Version Support form
Copyrights and abuse reports form
Time is now: 6th December 2021 - 00:50:22