Welcome Guest ( Log In | Register )

> Bog Wizard - From The Mire (2020), Stoner/Doom Metal
post Nov 19 2020, 23:36:31
Post #1

Попсовик от брутала
**************
Group: Металариец
Posts: 7,843
Releases: 78
From: Минск
On Forums: 12 years 9 months
Thanks: 7357 time(s)
Belarus


(IMG:http://metalarea.org/images/audiocovers/2020_Nov/acov_tid344162_thumb.jpg)

*Artist: Bog Wizard
*Album: From The Mire
*Year: 2020
*Genre: Stoner/Doom Metal
*Country: United States (IMG:http://metalarea.org/forum/style_images/flags/United%20States.png)
*Format: mp3@CBR320kbps
*Size: 151MB

Tracklist:
1. (You Decide) 00:53
2. Submission in Defiance 04:39
3. Tarrasque 05:21
4. City in the Mountain 08:29
5. Shapeshifter 05:57
6. Gnarled Cane 06:43
7. Fear the Crown 08:08
8. The Wizard in the Bog 05:26
9. The Orange Goblin 05:16
10. Fireside 03:29
11. (And Stay Out) 00:29
12. Swamp Golem 10:41
01:05:31
******************************
Total playing time: 1:06:36

Technical info
(IMG:http://metalarea.org/images/spectrogram/2020_Nov/57219e879679b82cecdc993143960bfc.png)
Input File: 02 - Submission in Defiance.mp3
Channels : 2
Sample Rate : 44100
Precision : 16-bit
Duration : 00:04:38.72 = 12291508 samples = 20903.9 CDDA sectors
File Size : 11.2M
Bit Rate : 322k
Sample Encoding: MPEG audio (layer I, II or III)
Comments :
Title=Submission in Defiance
Artist=Bog Wizard
Album=From the Mire
Tracknumber=02
Year=2020
Genre=Metal
Discnumber=1



Register


Go to the top of the page
  Insert nick Quick quote
+Quote Post
 
Start new topic
Replies (1 - 4)
post Nov 20 2020, 08:42:26
Post #2

Восемь Литров
********
Group: Металариец
Posts: 858
Releases: 0
On Forums: 13 years 11 months
Thanks: 385 time(s)
Poland




Thanks:
Go to the top of the page
  Insert nick Quick quote
+Quote Post
post Nov 20 2020, 12:16:40
Post #3

Правь статус, ####!111
**************
Group: Металариец
Posts: 49,218
Releases: 869
On Forums: 12 years 3 months
Thanks: 44690 time(s)
Russian Federation


Небезынтересная работа особенно всевозможными вокалами, но слишком уж легковесный музон.
Go to the top of the page
  Insert nick Quick quote
+Quote Post
post Nov 20 2020, 15:30:59
Post #4

:3
**************
Group: Металариец
Posts: 4,753
Releases: 104
From: Novosibirsk
On Forums: 14 years 4 days
Thanks: 3857 time(s)
Russian Federation


Разок можно послушать, есть интересные места. Но переслушивать желания точно нет.
Go to the top of the page
  Insert nick Quick quote
+Quote Post
post Nov 27 2020, 18:27:00
Post #5

Group: Подсевший
Posts: 11
Releases: 0
On Forums: 9 months 3 weeks
Thanks: 3 time(s)
United States


What a name.
Go to the top of the page
  Insert nick Quick quote
+Quote Post

Reply to this topicStart new topic
2 User(s) are reading this topic (2 Guests and 0 Anonymous Users)
0 Members:

 



- Lo-Fi Version Support form
Copyrights and abuse reports form
Time is now: 25th September 2021 - 00:21:39