Welcome Guest ( Log In | Register )

Объявления

* gmail.com упорно продолжает считать почту с нас "unsolicited" и отбивает в том числе и письма активации, поэтому просьба использовать альтернативные почтовые ящики.
------------
* gmail.com continues reject all mail from us as "unsolicited" (activation mails too) therefore please use alternate mail servers.

> 

Здесь релизы с живыми прямыми ссылками на lossless

> Eleine - Dancing In Hell (2020), Symphonic Metal (D)
post Nov 26 2020, 16:30:36
Post #1

Правь статус, ####!111
**************
Group: Металариец
Posts: 7,563
Releases: 6915
From: Одесса
On Forums: 15 years 11 months
Thanks: 80566 time(s)
Ukraine


(IMG:http://metalarea.org/images/audiocovers/2020_Nov/acov_tid344376_thumb.jpg)

*Artist: Eleine
*Album: Dancing In Hell
*Year: 2020
*Genre: Symphonic Metal
*Country: Sweden (IMG:http://metalarea.org/forum/style_images/flags/Sweden.png)
*Format: mp3@CBR320kbps
*Size: 117MB

Tracklist:
1. Enemies 05:22
2. Dancing in Hell 05:06
3. Ava of Death 04:06
4. Crawl from the Ashes 04:02
5. As I Breathe 03:56
6. Memoriam 06:15
7. Where Your Rotting Corpse Lie (W.Y.R.C.L.) 05:55
8. All Shall Burn 04:21
9. Die from Within 04:38
10. he World We Knew 01:35
11. Die from Within (symphonic version) 04:34
******************************
Total playing time: 49:50



Extended info
Line - up:

Rikard Ekberg - Guitars, Vocals (additional)
Madeleine "Eleine" Liljestam - Vocals (female) (RM Duo)
Anton Helgesson - Bass
Jesper Sunnhagen - Drums (Chine, Lord of Light, ex-Poseidon, ex-Chaeostribe, Into Dust, ex-Fifty Grand Suicide)






(IMG:https://f4.bcbits.com/img/0021350168_10.jpg)


Technical info
(IMG:http://metalarea.org/images/spectrogram/2020_Nov/726b018a4ca40485cfdc1efc101eea79.png)
Input File: 04. Crawl from the Ashes.mp3
Channels : 2
Sample Rate : 44100
Precision : 16-bit
Duration : 00:04:02.56 = 10697028 samples = 18192.2 CDDA sectors
File Size : 9.79M
Bit Rate : 323k
Sample Encoding: MPEG audio (layer I, II or III)
Comments :
Title=Crawl from the Ashes
Artist=Eleine
Album=Dancing in Hell
Tracknumber=4
Year=2020
Genre=Symphonic Metal



Register


Go to the top of the page
  Insert nick Quick quote
+Quote Post
 
Start new topic
Replies (1 - 9)
post Nov 27 2020, 10:20:32
Post #2

Шесть Литров
******
Group: Металариец
Posts: 602
Releases: 10
From: минск сити
On Forums: 14 years 11 months
Thanks: 1032 time(s)
Belarus


Лобода в татухах. =)))


Go to the top of the page
  Insert nick Quick quote
+Quote Post
post Nov 27 2020, 18:40:48
Post #3

Тридцать три года на борту "тяжёлого" крейсера
**************
Group: Металариец
Posts: 3,141
Releases: 0
From: Питер
On Forums: 16 years 11 months
Thanks: 998 time(s)
Russian Federation


а альбом очень качественный, между тем,
ребята, чувствуется, с душой отнеслись к новому детищу своему,
и спели, и сыграли (и сплясали) весьма достойно
зачет!


Thanks:
Go to the top of the page
  Insert nick Quick quote
+Quote Post
post Nov 27 2020, 20:28:41
Post #4

Мегаманьяк
***********
Group: Металариец
Posts: 1,824
Releases: 0
From: Russian Federation - St.Petersburg
On Forums: 15 years 2 months
Thanks: 524 time(s)
Russian Federation


На самом деле классный симфоник! (IMG:style_emoticons/default/smile4.gif)
Go to the top of the page
  Insert nick Quick quote
+Quote Post
post Nov 27 2020, 20:43:56
Post #5

MDM-Thrash Metal
**************
Group: Металариец
Posts: 12,448
Releases: 1741
From: Одесса
On Forums: 16 years 9 months
Thanks: 40440 time(s)
Ukraine


Я бы сказал, что даже хеви и очень классный!!!
Go to the top of the page
  Insert nick Quick quote
+Quote Post
post Nov 29 2020, 10:10:31
Post #6

Dark Ambient Shoujo
**********
Group: Металариец
Posts: 1,491
Releases: 5
On Forums: 15 years 4 months
Thanks: 999 time(s)
Russian Federation


Я даже не уверен, что подобное можно называть симфоником. В нынешних реалиях у этого слова сформировалась совершенно определенная, и не очень положительная, коннотация.
Go to the top of the page
  Insert nick Quick quote
+Quote Post
post Nov 29 2020, 13:42:14
Post #7

Маньяк
**********
Group: Металариец
Posts: 1,041
Releases: 0
From: Лыткарино
On Forums: 5 years 2 weeks
Thanks: 295 time(s)
Russian Federation


Как и бывает часто в случае таких коллективов - звучит и сыграно качественно, а души нет, скучно и вымученно. Правда, в плане "вымученности" есть такое впечатление, что это в основном из-за вокалистки.
Go to the top of the page
  Insert nick Quick quote
+Quote Post
post Dec 3 2020, 12:29:37
Post #8

Ъ
**************
Group: Металариец
Posts: 11,214
Releases: 9
On Forums: 15 years 4 months
Thanks: 2277 time(s)
Sweden


Третьесорт, на раз фоном послушать максимум. Певичка очень слабая, музыка никаких феерий не выдает. Тетя тоже страшная до ужаса.
Go to the top of the page
  Insert nick Quick quote
+Quote Post
post Nov 11 2021, 11:36:04
Post #9

Литр
*
Group: Подсевший
Posts: 93
Releases: 0
On Forums: 13 years 1 month
Thanks: 4 time(s)
Unknown


Uploud again please
Go to the top of the page
  Insert nick Quick quote
+Quote Post
post Nov 12 2021, 14:32:27
Post #10

Правь статус, ####!111
Group Icon
Group: S-moderation team
Posts: 22,058
Releases: 1443
On Forums: 13 years 3 months
Thanks: 127937 time(s)
Unknown


Register
Register


Thanks:
Go to the top of the page
  Insert nick Quick quote
+Quote Post

Reply to this topicStart new topic
1 User(s) are reading this topic (1 Guests and 0 Anonymous Users)
0 Members:

 



- Lo-Fi Version Support form
Copyrights and abuse reports form
Time is now: 26th May 2024 - 20:08:10